  0
SECTION
  2
HEADER
  9
$ACADVER
  1
AC1015
  9
$ACADMAINTVER
 70
     6
  9
$DWGCODEPAGE
  3
ANSI_1252
  9
$INSBASE
 10
0.0
 20
0.0
 30
0.0
  9
$EXTMIN
 10
355.3569163450422
 20
1655.230949724955
 30
0.0
  9
$EXTMAX
 10
775.3569163450422
 20
1952.230949724955
 30
0.0
  9
$LIMMIN
 10
0.0
 20
0.0
  9
$LIMMAX
 10
12.0
 20
9.0
  9
$ORTHOMODE
 70
     0
  9
$REGENMODE
 70
     1
  9
$FILLMODE
 70
     1
  9
$QTEXTMODE
 70
     0
  9
$MIRRTEXT
 70
     1
  9
$LTSCALE
 40
1.0
  9
$ATTMODE
 70
     1
  9
$TEXTSIZE
 40
0.2
  9
$TRACEWID
 40
0.05
  9
$TEXTSTYLE
  7
Standard
  9
$CLAYER
  8
0
  9
$CELTYPE
  6
ByLayer
  9
$CECOLOR
 62
   256
  9
$CELTSCALE
 40
1.0
  9
$DISPSILH
 70
     0
  9
$DIMSCALE
 40
1.0
  9
$DIMASZ
 40
0.18
  9
$DIMEXO
 40
0.0625
  9
$DIMDLI
 40
0.38
  9
$DIMRND
 40
0.0
  9
$DIMDLE
 40
0.0
  9
$DIMEXE
 40
0.18
  9
$DIMTP
 40
0.0
  9
$DIMTM
 40
0.0
  9
$DIMTXT
 40
0.18
  9
$DIMCEN
 40
0.09
  9
$DIMTSZ
 40
0.0
  9
$DIMTOL
 70
     0
  9
$DIMLIM
 70
     0
  9
$DIMTIH
 70
     1
  9
$DIMTOH
 70
     1
  9
$DIMSE1
 70
     0
  9
$DIMSE2
 70
     0
  9
$DIMTAD
 70
     0
  9
$DIMZIN
 70
     0
  9
$DIMBLK
  1

  9
$DIMASO
 70
     1
  9
$DIMSHO
 70
     1
  9
$DIMPOST
  1

  9
$DIMAPOST
  1

  9
$DIMALT
 70
     0
  9
$DIMALTD
 70
     2
  9
$DIMALTF
 40
25.4
  9
$DIMLFAC
 40
1.0
  9
$DIMTOFL
 70
     0
  9
$DIMTVP
 40
0.0
  9
$DIMTIX
 70
     0
  9
$DIMSOXD
 70
     0
  9
$DIMSAH
 70
     0
  9
$DIMBLK1
  1

  9
$DIMBLK2
  1

  9
$DIMSTYLE
  2
Standard
  9
$DIMCLRD
 70
     0
  9
$DIMCLRE
 70
     0
  9
$DIMCLRT
 70
     0
  9
$DIMTFAC
 40
1.0
  9
$DIMGAP
 40
0.09
  9
$DIMJUST
 70
     0
  9
$DIMSD1
 70
     0
  9
$DIMSD2
 70
     0
  9
$DIMTOLJ
 70
     1
  9
$DIMTZIN
 70
     0
  9
$DIMALTZ
 70
     0
  9
$DIMALTTZ
 70
     0
  9
$DIMUPT
 70
     0
  9
$DIMDEC
 70
     4
  9
$DIMTDEC
 70
     4
  9
$DIMALTU
 70
     2
  9
$DIMALTTD
 70
     2
  9
$DIMTXSTY
  7
Standard
  9
$DIMAUNIT
 70
     0
  9
$DIMADEC
 70
     0
  9
$DIMALTRND
 40
0.0
  9
$DIMAZIN
 70
     0
  9
$DIMDSEP
 70
    46
  9
$DIMATFIT
 70
     3
  9
$DIMFRAC
 70
     0
  9
$DIMLDRBLK
  1

  9
$DIMLUNIT
 70
     2
  9
$DIMLWD
 70
    -2
  9
$DIMLWE
 70
    -2
  9
$DIMTMOVE
 70
     0
  9
$LUNITS
 70
     2
  9
$LUPREC
 70
     4
  9
$SKETCHINC
 40
0.1
  9
$FILLETRAD
 40
0.5
  9
$AUNITS
 70
     0
  9
$AUPREC
 70
     0
  9
$MENU
  1
.
  9
$ELEVATION
 40
0.0
  9
$PELEVATION
 40
0.0
  9
$THICKNESS
 40
0.0
  9
$LIMCHECK
 70
     0
  9
$CHAMFERA
 40
0.5
  9
$CHAMFERB
 40
0.5
  9
$CHAMFERC
 40
1.0
  9
$CHAMFERD
 40
0.0
  9
$SKPOLY
 70
     0
  9
$TDCREATE
 40
2456997.609064884
  9
$TDUCREATE
 40
2456997.567398218
  9
$TDUPDATE
 40
2456997.609065243
  9
$TDUUPDATE
 40
2456997.567398577
  9
$TDINDWG
 40
0.0000000116
  9
$TDUSRTIMER
 40
0.0000000116
  9
$USRTIMER
 70
     1
  9
$ANGBASE
 50
0.0
  9
$ANGDIR
 70
     0
  9
$PDMODE
 70
     0
  9
$PDSIZE
 40
0.0
  9
$PLINEWID
 40
0.0
  9
$SPLFRAME
 70
     0
  9
$SPLINETYPE
 70
     6
  9
$SPLINESEGS
 70
     8
  9
$HANDSEED
  5
3D9
  9
$SURFTAB1
 70
     6
  9
$SURFTAB2
 70
     6
  9
$SURFTYPE
 70
     6
  9
$SURFU
 70
     6
  9
$SURFV
 70
     6
  9
$UCSBASE
  2

  9
$UCSNAME
  2

  9
$UCSORG
 10
0.0
 20
0.0
 30
0.0
  9
$UCSXDIR
 10
1.0
 20
0.0
 30
0.0
  9
$UCSYDIR
 10
0.0
 20
1.0
 30
0.0
  9
$UCSORTHOREF
  2

  9
$UCSORTHOVIEW
 70
     0
  9
$UCSORGTOP
 10
0.0
 20
0.0
 30
0.0
  9
$UCSORGBOTTOM
 10
0.0
 20
0.0
 30
0.0
  9
$UCSORGLEFT
 10
0.0
 20
0.0
 30
0.0
  9
$UCSORGRIGHT
 10
0.0
 20
0.0
 30
0.0
  9
$UCSORGFRONT
 10
0.0
 20
0.0
 30
0.0
  9
$UCSORGBACK
 10
0.0
 20
0.0
 30
0.0
  9
$PUCSBASE
  2

  9
$PUCSNAME
  2

  9
$PUCSORG
 10
0.0
 20
0.0
 30
0.0
  9
$PUCSXDIR
 10
1.0
 20
0.0
 30
0.0
  9
$PUCSYDIR
 10
0.0
 20
1.0
 30
0.0
  9
$PUCSORTHOREF
  2

  9
$PUCSORTHOVIEW
 70
     0
  9
$PUCSORGTOP
 10
0.0
 20
0.0
 30
0.0
  9
$PUCSORGBOTTOM
 10
0.0
 20
0.0
 30
0.0
  9
$PUCSORGLEFT
 10
0.0
 20
0.0
 30
0.0
  9
$PUCSORGRIGHT
 10
0.0
 20
0.0
 30
0.0
  9
$PUCSORGFRONT
 10
0.0
 20
0.0
 30
0.0
  9
$PUCSORGBACK
 10
0.0
 20
0.0
 30
0.0
  9
$USERI1
 70
     0
  9
$USERI2
 70
     0
  9
$USERI3
 70
     0
  9
$USERI4
 70
     0
  9
$USERI5
 70
     0
  9
$USERR1
 40
18.1
  9
$USERR2
 40
0.0
  9
$USERR3
 40
0.0
  9
$USERR4
 40
0.0
  9
$USERR5
 40
0.0
  9
$WORLDVIEW
 70
     1
  9
$SHADEDGE
 70
     3
  9
$SHADEDIF
 70
    70
  9
$TILEMODE
 70
     1
  9
$MAXACTVP
 70
    64
  9
$PINSBASE
 10
0.0
 20
0.0
 30
0.0
  9
$PLIMCHECK
 70
     0
  9
$PEXTMIN
 10
1.00000000000000E+20
 20
1.00000000000000E+20
 30
1.00000000000000E+20
  9
$PEXTMAX
 10
-1.00000000000000E+20
 20
-1.00000000000000E+20
 30
-1.00000000000000E+20
  9
$PLIMMIN
 10
0.0
 20
0.0
  9
$PLIMMAX
 10
12.0
 20
9.0
  9
$UNITMODE
 70
     0
  9
$VISRETAIN
 70
     1
  9
$PLINEGEN
 70
     0
  9
$PSLTSCALE
 70
     1
  9
$TREEDEPTH
 70
  3020
  9
$CMLSTYLE
  2
Standard
  9
$CMLJUST
 70
     0
  9
$CMLSCALE
 40
1.0
  9
$PROXYGRAPHICS
 70
     1
  9
$MEASUREMENT
 70
     1
  9
$CELWEIGHT
370
    -1
  9
$ENDCAPS
280
     0
  9
$JOINSTYLE
280
     0
  9
$LWDISPLAY
290
     0
  9
$INSUNITS
 70
     4
  9
$HYPERLINKBASE
  1

  9
$STYLESHEET
  1

  9
$XEDIT
290
     1
  9
$CEPSNTYPE
380
     0
  9
$PSTYLEMODE
290
     1
  9
$FINGERPRINTGUID
  2
{0EFE87E6-3E1F-47ED-B013-2045FC96DFCD}
  9
$VERSIONGUID
  2
{FAEB1C32-E019-11D5-929B-00C0DF256EC4}
  9
$EXTNAMES
290
     1
  9
$PSVPSCALE
 40
0.0
  9
$OLESTARTUP
290
     0
  0
ENDSEC
  0
SECTION
  2
CLASSES
  0
CLASS
  1
ACDBDICTIONARYWDFLT
  2
AcDbDictionaryWithDefault
  3
ObjectDBX Classes
 90
        0
280
     0
281
     0
  0
CLASS
  1
VISUALSTYLE
  2
AcDbVisualStyle
  3
ObjectDBX Classes
 90
     4095
280
     0
281
     0
  0
CLASS
  1
MATERIAL
  2
AcDbMaterial
  3
ObjectDBX Classes
 90
     1153
280
     0
281
     0
  0
CLASS
  1
DICTIONARYVAR
  2
AcDbDictionaryVar
  3
ObjectDBX Classes
 90
        0
280
     0
281
     0
  0
CLASS
  1
ACDBPLACEHOLDER
  2
AcDbPlaceHolder
  3
ObjectDBX Classes
 90
        0
280
     0
281
     0
  0
CLASS
  1
LAYOUT
  2
AcDbLayout
  3
ObjectDBX Classes
 90
        0
280
     0
281
     0
  0
ENDSEC
  0
SECTION
  2
TABLES
  0
TABLE
  2
VPORT
  5
8
330
0
100
AcDbSymbolTable
 70
     1
  0
VPORT
  5
29
330
8
100
AcDbSymbolTableRecord
100
AcDbViewportTableRecord
  2
*Active
 70
     0
 10
0.0
 20
0.0
 11
1.0
 21
1.0
 12
565.3569163450422
 22
1803.730949724955
 13
0.0
 23
0.0
 14
0.5
 24
0.5
 15
0.5
 25
0.5
 16
0.0
 26
0.0
 36
1.0
 17
0.0
 27
0.0
 37
0.0
 40
326.7
 41
1.60267857142857
 42
50.0
 43
0.0
 44
0.0
 50
0.0
 51
0.0
 71
     0
 72
   100
 73
     1
 74
     3
 75
     0
 76
     0
 77
     0
 78
     0
281
     0
 65
     1
110
0.0
120
0.0
130
0.0
111
1.0
121
0.0
131
0.0
112
0.0
122
1.0
132
0.0
 79
     0
146
0.0
  0
ENDTAB
  0
TABLE
  2
LTYPE
  5
5
330
0
100
AcDbSymbolTable
 70
     8
  0
LTYPE
  5
14
330
5
100
AcDbSymbolTableRecord
100
AcDbLinetypeTableRecord
  2
ByBlock
 70
     0
  3

 72
    65
 73
     0
 40
0.0
  0
LTYPE
  5
15
330
5
100
AcDbSymbolTableRecord
100
AcDbLinetypeTableRecord
  2
ByLayer
 70
     0
  3

 72
    65
 73
     0
 40
0.0
  0
LTYPE
  5
16
330
5
100
AcDbSymbolTableRecord
100
AcDbLinetypeTableRecord
  2
Continuous
 70
     0
  3
Solid line
 72
    65
 73
     0
 40
0.0
  0
LTYPE
  5
3F
330
5
100
AcDbSymbolTableRecord
100
AcDbLinetypeTableRecord
  2
DASHED
 70
     0
  3
Dashed
 72
    65
 73
     2
 40
15.0
 49
7.0
 74
     0
 49
-8.0
 74
     0
  0
LTYPE
  5
40
330
5
100
AcDbSymbolTableRecord
100
AcDbLinetypeTableRecord
  2
DOTTED
 70
     0
  3
Dotted
 72
    65
 73
     2
 40
1.0
 49
0.0
 74
     0
 49
-1.0
 74
     0
  0
LTYPE
  5
41
330
5
100
AcDbSymbolTableRecord
100
AcDbLinetypeTableRecord
  2
DOT_CENTER
 70
     0
  3
Dot_Center
 72
    65
 73
     4
 40
14.0
 49
12.0
 74
     0
 49
-1.0
 74
     0
 49
0.0
 74
     0
 49
-1.0
 74
     0
  0
LTYPE
  5
42
330
5
100
AcDbSymbolTableRecord
100
AcDbLinetypeTableRecord
  2
LONG_DASHED
 70
     0
  3
Long_Dashed
 72
    65
 73
     2
 40
15.0
 49
10.0
 74
     0
 49
-5.0
 74
     0
  0
LTYPE
  5
43
330
5
100
AcDbSymbolTableRecord
100
AcDbLinetypeTableRecord
  2
DASH_CENTER
 70
     0
  3
Dash_Center
 72
    65
 73
     4
 40
14.0
 49
11.0
 74
     0
 49
-1.0
 74
     0
 49
1.0
 74
     0
 49
-1.0
 74
     0
  0
LTYPE
  5
44
330
5
100
AcDbSymbolTableRecord
100
AcDbLinetypeTableRecord
  2
PHANTOM
 70
     0
  3
Phantom
 72
    65
 73
     6
 40
13.0
 49
10.0
 74
     0
 49
-1.0
 74
     0
 49
0.0
 74
     0
 49
-1.0
 74
     0
 49
0.0
 74
     0
 49
-1.0
 74
     0
  0
LTYPE
  5
45
330
5
100
AcDbSymbolTableRecord
100
AcDbLinetypeTableRecord
  2
CENTER_DASH_DASH
 70
     0
  3
Center_Dash_Dash
 72
    65
 73
     6
 40
14.0
 49
9.0
 74
     0
 49
-1.0
 74
     0
 49
1.0
 74
     0
 49
-1.0
 74
     0
 49
1.0
 74
     0
 49
-1.0
 74
     0
  0
ENDTAB
  0
TABLE
  2
LAYER
  5
2
330
0
100
AcDbSymbolTable
 70
     7
  0
LAYER
  5
10
330
2
100
AcDbSymbolTableRecord
100
AcDbLayerTableRecord
  2
0
 70
     0
 62
     7
  6
Continuous
370
    -3
390
F
  0
LAYER
  5
46
330
2
100
AcDbSymbolTableRecord
100
AcDbLayerTableRecord
  2
1
 70
     0
 62
     7
  6
Continuous
370
    -3
390
F
  0
LAYER
  5
47
330
2
100
AcDbSymbolTableRecord
100
AcDbLayerTableRecord
  2
Bemaßungen_TC_020513_DIN_
 70
     0
 62
     7
  6
Continuous
370
    -3
390
F
  0
LAYER
  5
48
330
2
100
AcDbSymbolTableRecord
100
AcDbLayerTableRecord
  2
Mittelpunktmarkierung_TC_020513_DIN_
 70
     0
 62
     7
  6
Continuous
370
    -3
390
F
  0
LAYER
  5
49
330
2
100
AcDbSymbolTableRecord
100
AcDbLayerTableRecord
  2
Sichtbare_Kanten_TC_020513_DIN_
 70
     0
 62
     7
  6
Continuous
370
    -3
390
F
  0
LAYER
  5
4A
330
2
100
AcDbSymbolTableRecord
100
AcDbLayerTableRecord
  2
Skizziergeometrie_TC_020513_DIN_
 70
     0
 62
     7
  6
Continuous
370
    -3
390
F
  0
LAYER
  5
4B
330
2
100
AcDbSymbolTableRecord
100
AcDbLayerTableRecord
  2
Symbole_TC_020513_DIN_
 70
     0
 62
     7
  6
Continuous
370
    -3
390
F
  0
ENDTAB
  0
TABLE
  2
STYLE
  5
3
330
0
100
AcDbSymbolTable
 70
     4
  0
STYLE
  5
11
330
3
100
AcDbSymbolTableRecord
100
AcDbTextStyleTableRecord
  2
Standard
 70
     0
 40
0.0
 41
1.0
 50
0.0
 71
     0
 42
0.2
  3
txt
  4

  0
STYLE
  5
D7
330
3
100
AcDbSymbolTableRecord
100
AcDbTextStyleTableRecord
  2
CONVERTER_11
 70
     0
 40
0.0
 41
1.2
 50
0.0
 71
     0
 42
0.2
  3
ARIAL.TTF
  4

  0
STYLE
  5
351
330
3
100
AcDbSymbolTableRecord
100
AcDbTextStyleTableRecord
  2
CONVERTER_12
 70
     0
 40
0.0
 41
0.75
 50
0.0
 71
     0
 42
0.2
  3
txt.shx
  4

  0
STYLE
  5
353
330
3
100
AcDbSymbolTableRecord
100
AcDbTextStyleTableRecord
  2
CONVERTER_13
 70
     0
 40
0.0
 41
0.95
 50
0.0
 71
     0
 42
0.2
  3
simplex.shx
  4

  0
ENDTAB
  0
TABLE
  2
VIEW
  5
6
330
0
100
AcDbSymbolTable
 70
     0
  0
ENDTAB
  0
TABLE
  2
UCS
  5
7
330
0
100
AcDbSymbolTable
 70
     0
  0
ENDTAB
  0
TABLE
  2
APPID
  5
9
330
0
100
AcDbSymbolTable
 70
     1
  0
APPID
  5
12
330
9
100
AcDbSymbolTableRecord
100
AcDbRegAppTableRecord
  2
ACAD
 70
     0
  0
ENDTAB
  0
TABLE
  2
DIMSTYLE
  5
A
330
0
100
AcDbSymbolTable
 70
     8
100
AcDbDimStyleTable
  0
DIMSTYLE
105
27
330
A
100
AcDbSymbolTableRecord
100
AcDbDimStyleTableRecord
  2
Standard
 70
     0
178
     0
340
11
  0
DIMSTYLE
105
35E
102
{ACAD_REACTORS
330
35F
102
}
330
A
100
AcDbSymbolTableRecord
100
AcDbDimStyleTableRecord
  2
ME10_DIM_10
 70
     0
 41
3.0
 42
0.5
 44
1.0
 77
     1
 78
     8
140
3.0
147
2.0
172
     1
173
     1
174
     1
175
     1
176
     2
177
     2
271
     2
178
     4
271
     2
340
353
  0
DIMSTYLE
105
369
102
{ACAD_REACTORS
330
36A
102
}
330
A
100
AcDbSymbolTableRecord
100
AcDbDimStyleTableRecord
  2
ME10_DIM_11
 70
     0
 41
3.0
 42
0.5
 44
1.0
 77
     1
 78
     8
140
3.0
147
2.0
172
     1
173
     1
174
     1
175
     1
176
     2
177
     2
271
     2
178
     4
271
     2
340
353
  0
DIMSTYLE
105
374
102
{ACAD_REACTORS
330
375
102
}
330
A
100
AcDbSymbolTableRecord
100
AcDbDimStyleTableRecord
  2
ME10_DIM_12
 70
     0
 41
3.0
 42
0.5
 44
1.0
 73
     0
 74
     0
 77
     1
 78
     8
140
3.0
147
2.0
172
     1
173
     1
174
     1
175
     1
176
     2
177
     2
271
     2
178
     4
271
     2
340
353
  0
DIMSTYLE
105
380
102
{ACAD_REACTORS
330
381
102
}
330
A
100
AcDbSymbolTableRecord
100
AcDbDimStyleTableRecord
  2
ME10_DIM_13
 70
     0
 41
3.0
 42
0.5
 44
1.0
 77
     1
 78
     8
140
3.0
147
2.0
172
     1
173
     1
174
     1
175
     1
176
     2
177
     2
271
     2
178
     4
271
     2
340
353
  0
DIMSTYLE
105
38C
102
{ACAD_REACTORS
330
38D
102
}
330
A
100
AcDbSymbolTableRecord
100
AcDbDimStyleTableRecord
  2
ME10_DIM_14
 70
     0
 41
3.0
 42
0.5
 44
1.0
 77
     1
 78
     8
140
3.0
147
2.0
172
     1
173
     1
174
     1
175
     1
176
     2
177
     2
271
     2
178
     4
271
     2
340
353
  0
DIMSTYLE
105
398
102
{ACAD_REACTORS
330
399
102
}
330
A
100
AcDbSymbolTableRecord
100
AcDbDimStyleTableRecord
  2
ME10_DIM_15
 70
     0
 41
3.0
 42
0.5
 44
1.0
 77
     1
 78
     8
140
3.0
147
2.0
172
     1
173
     1
174
     1
175
     1
176
     2
177
     2
271
     2
178
     4
271
     2
340
353
  0
DIMSTYLE
105
3A4
102
{ACAD_REACTORS
330
3A5
102
}
330
A
100
AcDbSymbolTableRecord
100
AcDbDimStyleTableRecord
  2
ME10_DIM_16
 70
     0
 41
3.0
 42
0.5
 44
1.0
 77
     1
 78
     8
140
3.0
147
2.0
172
     1
173
     1
174
     1
175
     1
176
     2
177
     2
271
     2
178
     4
271
     2
340
353
  0
ENDTAB
  0
TABLE
  2
BLOCK_RECORD
  5
1
330
0
100
AcDbSymbolTable
 70
    12
  0
BLOCK_RECORD
  5
1F
330
1
100
AcDbSymbolTableRecord
100
AcDbBlockTableRecord
  2
*Model_Space
340
22
  0
BLOCK_RECORD
  5
1B
330
1
100
AcDbSymbolTableRecord
100
AcDbBlockTableRecord
  2
*Paper_Space
340
1E
  0
BLOCK_RECORD
  5
23
330
1
100
AcDbSymbolTableRecord
100
AcDbBlockTableRecord
  2
*Paper_Space0
340
26
  0
BLOCK_RECORD
  5
4C
330
1
100
AcDbSymbolTableRecord
100
AcDbBlockTableRecord
  2
ILME6
340
0
102
{BLKREFS
331
56
102
}
  0
BLOCK_RECORD
  5
4F
330
1
100
AcDbSymbolTableRecord
100
AcDbBlockTableRecord
  2
_formato_A4
340
0
102
{BLKREFS
331
53
102
}
  0
BLOCK_RECORD
  5
52
330
1
100
AcDbSymbolTableRecord
100
AcDbBlockTableRecord
  2
A4_oriz
340
0
102
{BLKREFS
331
57
102
}
  0
BLOCK_RECORD
  5
355
330
1
100
AcDbSymbolTableRecord
100
AcDbBlockTableRecord
  2
*D4
340
0
  0
BLOCK_RECORD
  5
360
330
1
100
AcDbSymbolTableRecord
100
AcDbBlockTableRecord
  2
*D5
340
0
  0
BLOCK_RECORD
  5
36B
330
1
100
AcDbSymbolTableRecord
100
AcDbBlockTableRecord
  2
*D6
340
0
  0
BLOCK_RECORD
  5
376
330
1
100
AcDbSymbolTableRecord
100
AcDbBlockTableRecord
  2
*D7
340
0
  0
BLOCK_RECORD
  5
382
330
1
100
AcDbSymbolTableRecord
100
AcDbBlockTableRecord
  2
*D8
340
0
  0
BLOCK_RECORD
  5
38E
330
1
100
AcDbSymbolTableRecord
100
AcDbBlockTableRecord
  2
*D9
340
0
  0
BLOCK_RECORD
  5
39A
330
1
100
AcDbSymbolTableRecord
100
AcDbBlockTableRecord
  2
*D10
340
0
  0
BLOCK_RECORD
  5
3A6
330
1
100
AcDbSymbolTableRecord
100
AcDbBlockTableRecord
  2
*D11
340
0
102
{BLKREFS
331
3AD
102
}
  0
ENDTAB
  0
ENDSEC
  0
SECTION
  2
BLOCKS
  0
BLOCK
  5
20
330
1F
100
AcDbEntity
  8
0
100
AcDbBlockBegin
  2
*Model_Space
 70
     0
 10
0.0
 20
0.0
 30
0.0
  3
*Model_Space
  1

  0
ENDBLK
  5
21
330
1F
100
AcDbEntity
  8
0
100
AcDbBlockEnd
  0
BLOCK
  5
1C
330
1B
100
AcDbEntity
 67
     1
  8
0
100
AcDbBlockBegin
  2
*Paper_Space
 70
     0
 10
0.0
 20
0.0
 30
0.0
  3
*Paper_Space
  1

  0
ENDBLK
  5
1D
330
1B
100
AcDbEntity
 67
     1
  8
0
100
AcDbBlockEnd
  0
BLOCK
  5
24
330
23
100
AcDbEntity
  8
0
100
AcDbBlockBegin
  2
*Paper_Space0
 70
     0
 10
0.0
 20
0.0
 30
0.0
  3
*Paper_Space0
  1

  0
ENDBLK
  5
25
330
23
100
AcDbEntity
  8
0
100
AcDbBlockEnd
  0
BLOCK
  5
4D
330
4C
100
AcDbEntity
  8
0
100
AcDbBlockBegin
  2
ILME6
 70
     0
 10
558.5334074464059
 20
1808.022774678812
 30
0.0
  3
ILME6
  1

  0
LINE
  5
58
102
{ACAD_REACTORS
330
8A
102
}
330
4C
100
AcDbEntity
  8
1
  6
Continuous
 62
     2
100
AcDbLine
 10
559.1334074464058
 20
1808.022774678812
 30
0.0
 11
559.1334074464058
 21
1809.062005163353
 31
0.0
  0
LINE
  5
59
102
{ACAD_REACTORS
330
8A
102
}
330
4C
100
AcDbEntity
  8
1
  6
Continuous
 62
     2
100
AcDbLine
 10
559.1334074464058
 20
1809.062005163353
 30
0.0
 11
558.6200099867843
 21
1808.172774678812
 31
0.0
  0
LINE
  5
5A
102
{ACAD_REACTORS
330
8A
102
}
330
4C
100
AcDbEntity
  8
1
  6
Continuous
 62
     2
100
AcDbLine
 10
558.4468049060275
 20
1808.172774678812
 30
0.0
 11
557.9334074464056
 21
1809.062005163353
 31
0.0
  0
LINE
  5
5B
102
{ACAD_REACTORS
330
8A
102
}
330
4C
100
AcDbEntity
  8
1
  6
Continuous
 62
     2
100
AcDbLine
 10
557.9334074464056
 20
1809.062005163353
 30
0.0
 11
557.9334074464056
 21
1808.022774678812
 31
0.0
  0
LINE
  5
5C
330
4C
100
AcDbEntity
  8
1
  6
Continuous
 62
     2
100
AcDbLine
 10
553.4835462813209
 20
1808.109393237416
 30
0.0
 11
558.5334074464059
 21
1811.022774678812
 31
0.0
  0
LINE
  5
5D
330
4C
100
AcDbEntity
  8
1
  6
Continuous
 62
     2
100
AcDbLine
 10
558.5334074464059
 20
1811.022774678812
 30
0.0
 11
563.5832686114906
 21
1808.109393237416
 31
0.0
  0
LINE
  5
5E
330
4C
100
AcDbEntity
  8
1
  6
Continuous
 62
     2
100
AcDbLine
 10
563.5832686114906
 20
1807.936156120207
 30
0.0
 11
558.5334074464059
 21
1805.022774678812
 31
0.0
  0
LINE
  5
5F
330
4C
100
AcDbEntity
  8
1
  6
Continuous
 62
     2
100
AcDbLine
 10
558.5334074464059
 20
1805.022774678812
 30
0.0
 11
553.4835462813209
 21
1807.936156120207
 31
0.0
  0
LINE
  5
60
102
{ACAD_REACTORS
330
8A
102
}
330
4C
100
AcDbEntity
  8
1
  6
Continuous
 62
     2
100
AcDbLine
 10
557.5334074464059
 20
1808.022774678812
 30
0.0
 11
557.5334074464059
 21
1809.961505066032
 31
0.0
  0
LINE
  5
61
102
{ACAD_REACTORS
330
8A
102
}
330
4C
100
AcDbEntity
  8
1
  6
Continuous
 62
     2
100
AcDbLine
 10
557.8300676565797
 20
1810.040994929775
 30
0.0
 11
558.5334074464059
 21
1808.822774678812
 31
0.0
  0
LINE
  5
62
102
{ACAD_REACTORS
330
8A
102
}
330
4C
100
AcDbEntity
  8
1
  6
Continuous
 62
     2
100
AcDbLine
 10
557.5334074464059
 20
1808.022774678812
 30
0.0
 11
557.5334074464059
 21
1807.031325722391
 31
0.0
  0
LINE
  5
63
102
{ACAD_REACTORS
330
8A
102
}
330
4C
100
AcDbEntity
  8
1
  6
Continuous
 62
     2
100
AcDbLine
 10
557.9334074464056
 20
1807.031325722391
 30
0.0
 11
557.9334074464056
 21
1808.022774678812
 31
0.0
  0
LINE
  5
64
102
{ACAD_REACTORS
330
8A
102
}
330
4C
100
AcDbEntity
  8
1
  6
Continuous
 62
     2
100
AcDbLine
 10
559.1334074464058
 20
1808.022774678812
 30
0.0
 11
559.1334074464058
 21
1806.107736121173
 31
0.0
  0
LINE
  5
65
102
{ACAD_REACTORS
330
8A
102
}
330
4C
100
AcDbEntity
  8
1
  6
Continuous
 62
     2
100
AcDbLine
 10
559.5334074464059
 20
1806.107736121173
 30
0.0
 11
559.5334074464059
 21
1809.961505066032
 31
0.0
  0
LINE
  5
66
102
{ACAD_REACTORS
330
8A
102
}
330
4C
100
AcDbEntity
  8
1
  6
Continuous
 62
     2
100
AcDbLine
 10
559.2367472362317
 20
1810.040994929775
 30
0.0
 11
558.5334074464059
 21
1808.822774678812
 31
0.0
  0
LINE
  5
67
102
{ACAD_REACTORS
330
89
102
}
330
4C
100
AcDbEntity
  8
1
  6
Continuous
 62
     2
100
AcDbLine
 10
556.7334074464057
 20
1806.684787367631
 30
0.0
 11
556.7334074464057
 21
1809.476274774912
 31
0.0
  0
LINE
  5
68
102
{ACAD_REACTORS
330
89
102
}
330
4C
100
AcDbEntity
  8
1
  6
Continuous
 62
     2
100
AcDbLine
 10
557.1334074464058
 20
1809.476274774912
 30
0.0
 11
557.1334074464058
 21
1806.684787367631
 31
0.0
  0
LINE
  5
69
102
{ACAD_REACTORS
330
89
102
}
330
4C
100
AcDbEntity
  8
1
  6
Continuous
 62
     2
100
AcDbLine
 10
557.1334074464058
 20
1806.684787367631
 30
0.0
 11
558.4333519371036
 21
1805.934819392229
 31
0.0
  0
LINE
  5
6A
102
{ACAD_REACTORS
330
89
102
}
330
4C
100
AcDbEntity
  8
1
  6
Continuous
 62
     2
100
AcDbLine
 10
558.2334629557078
 20
1805.588345157809
 30
0.0
 11
556.93351846501
 21
1806.338313133212
 31
0.0
  0
LINE
  5
6B
102
{ACAD_REACTORS
330
88
102
}
330
4C
100
AcDbEntity
  8
1
  6
Continuous
 62
     2
100
AcDbLine
 10
556.3334074464057
 20
1809.014736313374
 30
0.0
 11
556.3334074464057
 21
1807.146325829169
 31
0.0
  0
LINE
  5
6C
102
{ACAD_REACTORS
330
88
102
}
330
4C
100
AcDbEntity
  8
1
  6
Continuous
 62
     2
100
AcDbLine
 10
556.3334074464057
 20
1807.146325829169
 30
0.0
 11
556.3334074464057
 21
1807.03081304425
 31
0.0
  0
LINE
  5
6D
102
{ACAD_REACTORS
330
88
102
}
330
4C
100
AcDbEntity
  8
1
  6
Continuous
 62
     2
100
AcDbLine
 10
555.9334074464056
 20
1807.03081304425
 30
0.0
 11
555.9334074464056
 21
1809.014736313374
 31
0.0
  0
LINE
  5
6E
102
{ACAD_REACTORS
330
8B
102
}
330
4C
100
AcDbEntity
  8
1
  6
Continuous
 62
     2
100
AcDbLine
 10
560.2333519371037
 20
1809.649511892122
 30
0.0
 11
561.0333519371035
 21
1809.187973430583
 31
0.0
  0
LINE
  5
6F
102
{ACAD_REACTORS
330
8B
102
}
330
4C
100
AcDbEntity
  8
1
  6
Continuous
 62
     2
100
AcDbLine
 10
560.8334629557077
 20
1808.841499196164
 30
0.0
 11
560.3334074464057
 21
1809.129992759223
 31
0.0
  0
LINE
  5
70
102
{ACAD_REACTORS
330
8B
102
}
330
4C
100
AcDbEntity
  8
1
  6
Continuous
 62
     2
100
AcDbLine
 10
560.3334074464057
 20
1809.129992759223
 30
0.0
 11
560.3334074464057
 21
1808.222774678811
 31
0.0
  0
LINE
  5
71
102
{ACAD_REACTORS
330
8B
102
}
330
4C
100
AcDbEntity
  8
1
  6
Continuous
 62
     2
100
AcDbLine
 10
560.3334074464057
 20
1808.222774678811
 30
0.0
 11
560.9334074464056
 21
1808.222774678811
 31
0.0
  0
LINE
  5
72
102
{ACAD_REACTORS
330
8B
102
}
330
4C
100
AcDbEntity
  8
1
  6
Continuous
 62
     2
100
AcDbLine
 10
560.9334074464056
 20
1807.822774678812
 30
0.0
 11
560.3334074464057
 21
1807.822774678812
 31
0.0
  0
LINE
  5
73
102
{ACAD_REACTORS
330
8B
102
}
330
4C
100
AcDbEntity
  8
1
  6
Continuous
 62
     2
100
AcDbLine
 10
560.3334074464057
 20
1807.822774678812
 30
0.0
 11
560.3334074464057
 21
1806.9155565984
 31
0.0
  0
LINE
  5
74
102
{ACAD_REACTORS
330
8B
102
}
330
4C
100
AcDbEntity
  8
1
  6
Continuous
 62
     2
100
AcDbLine
 10
560.3334074464057
 20
1806.9155565984
 30
0.0
 11
560.8334629557077
 21
1807.204050161459
 31
0.0
  0
LINE
  5
75
102
{ACAD_REACTORS
330
8B
102
}
330
4C
100
AcDbEntity
  8
1
  6
Continuous
 62
     2
100
AcDbLine
 10
561.0333519371035
 20
1806.85757592704
 30
0.0
 11
560.2333519371037
 21
1806.396037465501
 31
0.0
  0
LINE
  5
76
102
{ACAD_REACTORS
330
8B
102
}
330
4C
100
AcDbEntity
  8
1
  6
Continuous
 62
     2
100
AcDbLine
 10
559.9334074464056
 20
1806.569274582711
 30
0.0
 11
559.9334074464056
 21
1809.476274774912
 31
0.0
  0
ARC
  5
77
102
{ACAD_REACTORS
330
8A
102
}
330
4C
100
AcDbEntity
  8
1
  6
Continuous
 62
     2
100
AcDbCircle
 10
557.692387173891
 20
1809.961505066032
 30
0.0
 40
0.1589797274851842
100
AcDbArc
 50
30.00000000016659
 51
180.0
  0
ARC
  5
78
102
{ACAD_REACTORS
330
8A
102
}
330
4C
100
AcDbEntity
  8
1
  6
Continuous
 62
     2
100
AcDbCircle
 10
557.7334074464057
 20
1807.031325722391
 30
0.0
 40
0.1999999999998181
100
AcDbArc
 50
180.0
 51
0.0
  0
ARC
  5
79
102
{ACAD_REACTORS
330
8A
102
}
330
4C
100
AcDbEntity
  8
1
  6
Continuous
 62
     2
100
AcDbCircle
 10
559.3334074464057
 20
1806.107736121173
 30
0.0
 40
0.1999999999998181
100
AcDbArc
 50
180.0
 51
0.0
  0
ARC
  5
7A
102
{ACAD_REACTORS
330
8A
102
}
330
4C
100
AcDbEntity
  8
1
  6
Continuous
 62
     2
100
AcDbCircle
 10
559.3744277189209
 20
1809.961505066032
 30
0.0
 40
0.1589797274850753
100
AcDbArc
 50
0.0
 51
149.9999999999154
  0
ARC
  5
7B
102
{ACAD_REACTORS
330
89
102
}
330
4C
100
AcDbEntity
  8
1
  6
Continuous
 62
     2
100
AcDbCircle
 10
556.9334074464056
 20
1809.476274774912
 30
0.0
 40
0.2000000000002728
100
AcDbArc
 50
0.0
 51
180.0
  0
ARC
  5
7C
102
{ACAD_REACTORS
330
89
102
}
330
4C
100
AcDbEntity
  8
1
  6
Continuous
 62
     2
100
AcDbCircle
 10
558.3334074464057
 20
1805.761582275019
 30
0.0
 40
0.2000000000002081
100
AcDbArc
 50
240.0183606311875
 51
60.01836063118757
  0
ARC
  5
7D
102
{ACAD_REACTORS
330
88
102
}
330
4C
100
AcDbEntity
  8
1
  6
Continuous
 62
     2
100
AcDbCircle
 10
556.1334074464058
 20
1809.014736313374
 30
0.0
 40
0.1999999999998181
100
AcDbArc
 50
0.0
 51
180.0
  0
ARC
  5
7E
102
{ACAD_REACTORS
330
88
102
}
330
4C
100
AcDbEntity
  8
1
  6
Continuous
 62
     2
100
AcDbCircle
 10
556.1334074464058
 20
1807.03081304425
 30
0.0
 40
0.2000000000002728
100
AcDbArc
 50
180.0
 51
0.0
  0
ARC
  5
7F
102
{ACAD_REACTORS
330
8B
102
}
330
4C
100
AcDbEntity
  8
1
  6
Continuous
 62
     2
100
AcDbCircle
 10
560.9334074464056
 20
1809.014736313374
 30
0.0
 40
0.2000000000002081
100
AcDbArc
 50
240.0183606311875
 51
60.01836063105735
  0
ARC
  5
80
102
{ACAD_REACTORS
330
8B
102
}
330
4C
100
AcDbEntity
  8
1
  6
Continuous
 62
     2
100
AcDbCircle
 10
560.9334074464056
 20
1808.022774678812
 30
0.0
 40
0.2000000000000455
100
AcDbArc
 50
270.0
 51
90.0
  0
ARC
  5
81
102
{ACAD_REACTORS
330
8B
102
}
330
4C
100
AcDbEntity
  8
1
  6
Continuous
 62
     2
100
AcDbCircle
 10
560.9334074464056
 20
1807.03081304425
 30
0.0
 40
0.2000000000002081
100
AcDbArc
 50
299.9816393688125
 51
119.9816393689427
  0
ARC
  5
82
102
{ACAD_REACTORS
330
8A
102
}
330
4C
100
AcDbEntity
  8
1
  6
Continuous
 62
     2
100
AcDbCircle
 10
558.5334074464059
 20
1808.222774678811
 30
0.0
 40
0.0999999999994913
100
AcDbArc
 50
209.9999999995365
 51
330.0000000004636
  0
ARC
  5
83
102
{ACAD_REACTORS
330
89
102
}
330
4C
100
AcDbEntity
  8
1
  6
Continuous
 62
     2
100
AcDbCircle
 10
557.1334074464058
 20
1806.684787367631
 30
0.0
 40
0.4000000000000909
100
AcDbArc
 50
180.0
 51
240.0183606311225
  0
ARC
  5
84
330
4C
100
AcDbEntity
  8
1
  6
Continuous
 62
     2
100
AcDbCircle
 10
553.53351852667
 20
1808.022774678812
 30
0.0
 40
0.0999999999993314
100
AcDbArc
 50
119.9816393692182
 51
240.0183606311073
  0
ARC
  5
85
330
4C
100
AcDbEntity
  8
1
  6
Continuous
 62
     2
100
AcDbCircle
 10
563.5332963661418
 20
1808.022774678812
 30
0.0
 40
0.1000000000000889
100
AcDbArc
 50
299.9816393686671
 51
60.01836063100744
  0
ARC
  5
86
102
{ACAD_REACTORS
330
8B
102
}
330
4C
100
AcDbEntity
  8
1
  6
Continuous
 62
     2
100
AcDbCircle
 10
560.1334074464058
 20
1809.476274774912
 30
0.0
 40
0.2000000000002081
100
AcDbArc
 50
60.01836063118757
 51
180.0
  0
ARC
  5
87
102
{ACAD_REACTORS
330
8B
102
}
330
4C
100
AcDbEntity
  8
1
  6
Continuous
 62
     2
100
AcDbCircle
 10
560.1334074464058
 20
1806.569274582711
 30
0.0
 40
0.2000000000002728
100
AcDbArc
 50
180.0
 51
299.9816393688125
  0
HATCH
  5
88
330
4C
100
AcDbEntity
  8
1
  6
Continuous
 62
     3
100
AcDbHatch
 10
0.0
 20
0.0
 30
0.0
210
0.0
220
0.0
230
1.0
  2
_USER
 70
     0
 71
     1
 91
        1
 92
        1
 93
        5
 72
     2
 10
556.1334074464058
 20
1809.014736313374
 40
0.1999999999998181
 50
0.0
 51
180.0
 73
     1
 72
     1
 10
555.9334074464056
 20
1809.014736313374
 11
555.9334074464056
 21
1807.03081304425
 72
     2
 10
556.1334074464058
 20
1807.03081304425
 40
0.2000000000002728
 50
180.0
 51
360.0
 73
     1
 72
     1
 10
556.3334074464057
 20
1807.03081304425
 11
556.3334074464057
 21
1807.146325829169
 72
     1
 10
556.3334074464057
 20
1807.146325829169
 11
556.3334074464057
 21
1809.014736313374
 97
        5
330
7D
330
6D
330
7E
330
6C
330
6B
 75
     1
 76
     0
 52
45.0
 41
0.2
 77
     0
 78
     1
 53
45.0
 43
0.0
 44
0.0
 45
-0.1414213562373095
 46
0.1414213562373095
 79
     0
 98
        1
 10
0.0
 20
0.0
  0
HATCH
  5
89
330
4C
100
AcDbEntity
  8
1
  6
Continuous
 62
     3
100
AcDbHatch
 10
0.0
 20
0.0
 30
0.0
210
0.0
220
0.0
230
1.0
  2
_USER
 70
     0
 71
     1
 91
        1
 92
        1
 93
        7
 72
     2
 10
556.9334074464056
 20
1809.476274774912
 40
0.2000000000002728
 50
0.0
 51
180.0
 73
     1
 72
     1
 10
556.7334074464057
 20
1809.476274774912
 11
556.7334074464057
 21
1806.684787367631
 72
     2
 10
557.1334074464058
 20
1806.684787367631
 40
0.4000000000000909
 50
180.0
 51
240.0183606311225
 73
     1
 72
     1
 10
556.93351846501
 20
1806.338313133212
 11
558.2334629557078
 21
1805.588345157809
 72
     2
 10
558.3334074464057
 20
1805.761582275019
 40
0.2000000000002081
 50
240.0183606311875
 51
420.0183606311875
 73
     1
 72
     1
 10
558.4333519371036
 20
1805.934819392229
 11
557.1334074464058
 21
1806.684787367631
 72
     1
 10
557.1334074464058
 20
1806.684787367631
 11
557.1334074464058
 21
1809.476274774912
 97
        7
330
7B
330
67
330
83
330
6A
330
7C
330
69
330
68
 75
     1
 76
     0
 52
45.0
 41
0.2
 77
     0
 78
     1
 53
45.0
 43
0.0
 44
0.0
 45
-0.1414213562373095
 46
0.1414213562373095
 79
     0
 98
        1
 10
0.0
 20
0.0
  0
HATCH
  5
8A
330
4C
100
AcDbEntity
  8
1
  6
Continuous
 62
     3
100
AcDbHatch
 10
0.0
 20
0.0
 30
0.0
210
0.0
220
0.0
230
1.0
  2
_USER
 70
     0
 71
     1
 91
        1
 92
        1
 93
       16
 72
     2
 10
557.692387173891
 20
1809.961505066032
 40
0.1589797274851842
 50
30.00000000016659
 51
180.0
 73
     1
 72
     1
 10
557.5334074464059
 20
1809.961505066032
 11
557.5334074464059
 21
1808.022774678812
 72
     1
 10
557.5334074464059
 20
1808.022774678812
 11
557.5334074464059
 21
1807.031325722391
 72
     2
 10
557.7334074464057
 20
1807.031325722391
 40
0.1999999999998181
 50
180.0
 51
360.0
 73
     1
 72
     1
 10
557.9334074464056
 20
1807.031325722391
 11
557.9334074464056
 21
1808.022774678812
 72
     1
 10
557.9334074464056
 20
1808.022774678812
 11
557.9334074464056
 21
1809.062005163353
 72
     1
 10
557.9334074464056
 20
1809.062005163353
 11
558.4468049060275
 21
1808.172774678812
 72
     2
 10
558.5334074464059
 20
1808.222774678811
 40
0.0999999999994913
 50
209.9999999995365
 51
330.0000000004636
 73
     1
 72
     1
 10
558.6200099867843
 20
1808.172774678812
 11
559.1334074464058
 21
1809.062005163353
 72
     1
 10
559.1334074464058
 20
1809.062005163353
 11
559.1334074464058
 21
1808.022774678812
 72
     1
 10
559.1334074464058
 20
1808.022774678812
 11
559.1334074464058
 21
1806.107736121173
 72
     2
 10
559.3334074464057
 20
1806.107736121173
 40
0.1999999999998181
 50
180.0
 51
360.0
 73
     1
 72
     1
 10
559.5334074464059
 20
1806.107736121173
 11
559.5334074464059
 21
1809.961505066032
 72
     2
 10
559.3744277189209
 20
1809.961505066032
 40
0.1589797274850753
 50
0.0
 51
149.9999999999154
 73
     1
 72
     1
 10
559.2367472362317
 20
1810.040994929775
 11
558.5334074464059
 21
1808.822774678812
 72
     1
 10
558.5334074464059
 20
1808.822774678812
 11
557.8300676565797
 21
1810.040994929775
 97
       16
330
77
330
60
330
62
330
78
330
63
330
5B
330
5A
330
82
330
59
330
58
330
64
330
79
330
65
330
7A
330
66
330
61
 75
     1
 76
     0
 52
45.0
 41
0.2
 77
     0
 78
     1
 53
45.0
 43
0.0
 44
0.0
 45
-0.1414213562373095
 46
0.1414213562373095
 79
     0
 98
        1
 10
0.0
 20
0.0
  0
HATCH
  5
8B
330
4C
100
AcDbEntity
  8
1
  6
Continuous
 62
     3
100
AcDbHatch
 10
0.0
 20
0.0
 30
0.0
210
0.0
220
0.0
230
1.0
  2
_USER
 70
     0
 71
     1
 91
        1
 92
        1
 93
       14
 72
     2
 10
560.1334074464058
 20
1809.476274774912
 40
0.2000000000002081
 50
60.01836063118757
 51
180.0
 73
     1
 72
     1
 10
559.9334074464056
 20
1809.476274774912
 11
559.9334074464056
 21
1806.569274582711
 72
     2
 10
560.1334074464058
 20
1806.569274582711
 40
0.2000000000002728
 50
180.0
 51
299.9816393688125
 73
     1
 72
     1
 10
560.2333519371037
 20
1806.396037465501
 11
561.0333519371035
 21
1806.85757592704
 72
     2
 10
560.9334074464056
 20
1807.03081304425
 40
0.2000000000002081
 50
299.9816393688125
 51
479.9816393689427
 73
     1
 72
     1
 10
560.8334629557077
 20
1807.204050161459
 11
560.3334074464057
 21
1806.9155565984
 72
     1
 10
560.3334074464057
 20
1806.9155565984
 11
560.3334074464057
 21
1807.822774678812
 72
     1
 10
560.3334074464057
 20
1807.822774678812
 11
560.9334074464056
 21
1807.822774678812
 72
     2
 10
560.9334074464056
 20
1808.022774678812
 40
0.2000000000000455
 50
270.0
 51
450.0
 73
     1
 72
     1
 10
560.9334074464056
 20
1808.222774678811
 11
560.3334074464057
 21
1808.222774678811
 72
     1
 10
560.3334074464057
 20
1808.222774678811
 11
560.3334074464057
 21
1809.129992759223
 72
     1
 10
560.3334074464057
 20
1809.129992759223
 11
560.8334629557077
 21
1808.841499196164
 72
     2
 10
560.9334074464056
 20
1809.014736313374
 40
0.2000000000002081
 50
240.0183606311875
 51
420.0183606310573
 73
     1
 72
     1
 10
561.0333519371035
 20
1809.187973430583
 11
560.2333519371037
 21
1809.649511892122
 97
       14
330
86
330
76
330
87
330
75
330
81
330
74
330
73
330
72
330
80
330
71
330
70
330
6F
330
7F
330
6E
 75
     1
 76
     0
 52
45.0
 41
0.2
 77
     0
 78
     1
 53
45.0
 43
0.0
 44
0.0
 45
-0.1414213562373095
 46
0.1414213562373095
 79
     0
 98
        1
 10
0.0
 20
0.0
  0
ENDBLK
  5
4E
330
4C
100
AcDbEntity
  8
0
100
AcDbBlockEnd
  0
BLOCK
  5
50
330
4F
100
AcDbEntity
  8
0
100
AcDbBlockBegin
  2
_formato_A4
 70
     0
 10
356.0325407779224
 20
1922.854734719313
 30
0.0
  3
_formato_A4
  1

  0
LINE
  5
8C
330
4F
100
AcDbEntity
  8
1
  6
Continuous
 62
     7
100
AcDbLine
 10
290.0325407779224
 20
1855.130649833338
 30
0.0
 11
290.0325407779224
 21
1890.130649833338
 31
0.0
  0
LINE
  5
8D
330
4F
100
AcDbEntity
  8
1
  6
Continuous
 62
     7
100
AcDbLine
 10
290.0325407779224
 20
1870.130649833338
 30
0.0
 11
474.0325407779224
 21
1870.130649833338
 31
0.0
  0
LINE
  5
8E
330
4F
100
AcDbEntity
  8
1
  6
Continuous
 62
     7
100
AcDbLine
 10
64.03254077792235
 20
2126.130649833338
 30
0.0
 11
64.03254077792235
 21
1855.130649833338
 31
0.0
  0
LINE
  5
8F
330
4F
100
AcDbEntity
  8
1
  6
Continuous
 62
     7
100
AcDbLine
 10
315.0325407779224
 20
1885.130649833338
 30
0.0
 11
315.0325407779224
 21
1890.130649833338
 31
0.0
  0
LINE
  5
90
330
4F
100
AcDbEntity
  8
1
  6
Continuous
 62
     7
100
AcDbLine
 10
297.0325407779224
 20
1885.130649833338
 30
0.0
 11
297.0325407779224
 21
1890.130649833338
 31
0.0
  0
LINE
  5
91
330
4F
100
AcDbEntity
  8
1
  6
Continuous
 62
     7
100
AcDbLine
 10
290.0325407779224
 20
1890.130649833338
 30
0.0
 11
474.0325407779224
 21
1890.130649833338
 31
0.0
  0
LINE
  5
92
330
4F
100
AcDbEntity
  8
1
  6
Continuous
 62
     7
100
AcDbLine
 10
315.0325407779224
 20
1880.130649833338
 30
0.0
 11
315.0325407779224
 21
1885.130649833338
 31
0.0
  0
LINE
  5
93
330
4F
100
AcDbEntity
  8
1
  6
Continuous
 62
     7
100
AcDbLine
 10
297.0325407779224
 20
1880.130649833338
 30
0.0
 11
297.0325407779224
 21
1885.130649833338
 31
0.0
  0
LINE
  5
94
330
4F
100
AcDbEntity
  8
1
  6
Continuous
 62
     7
100
AcDbLine
 10
290.0325407779224
 20
1885.130649833338
 30
0.0
 11
474.0325407779224
 21
1885.130649833338
 31
0.0
  0
LINE
  5
95
330
4F
100
AcDbEntity
  8
1
  6
Continuous
 62
     7
100
AcDbLine
 10
315.0325407779224
 20
1875.130649833338
 30
0.0
 11
315.0325407779224
 21
1880.130649833338
 31
0.0
  0
LINE
  5
96
330
4F
100
AcDbEntity
  8
1
  6
Continuous
 62
     7
100
AcDbLine
 10
297.0325407779224
 20
1875.130649833338
 30
0.0
 11
297.0325407779224
 21
1880.130649833338
 31
0.0
  0
LINE
  5
97
330
4F
100
AcDbEntity
  8
1
  6
Continuous
 62
     7
100
AcDbLine
 10
290.0325407779224
 20
1880.130649833338
 30
0.0
 11
474.0325407779224
 21
1880.130649833338
 31
0.0
  0
LINE
  5
98
330
4F
100
AcDbEntity
  8
1
  6
Continuous
 62
     7
100
AcDbLine
 10
315.0325407779224
 20
1870.130649833338
 30
0.0
 11
315.0325407779224
 21
1875.130649833338
 31
0.0
  0
LINE
  5
99
330
4F
100
AcDbEntity
  8
1
  6
Continuous
 62
     7
100
AcDbLine
 10
297.0325407779224
 20
1870.130649833338
 30
0.0
 11
297.0325407779224
 21
1875.130649833338
 31
0.0
  0
LINE
  5
9A
330
4F
100
AcDbEntity
  8
1
  6
Continuous
 62
     7
100
AcDbLine
 10
290.0325407779224
 20
1875.130649833338
 30
0.0
 11
474.0325407779224
 21
1875.130649833338
 31
0.0
  0
LINE
  5
9B
102
{ACAD_REACTORS
330
DC
102
}
330
4F
100
AcDbEntity
  8
1
  6
Continuous
 62
     7
100
AcDbLine
 10
464.8754156178281
 20
1860.688651913719
 30
0.0
 11
463.5420822844942
 21
1859.919421144488
 31
0.0
  0
LINE
  5
9C
102
{ACAD_REACTORS
330
DC
102
}
330
4F
100
AcDbEntity
  8
1
  6
Continuous
 62
     7
100
AcDbLine
 10
463.7088414666644
 20
1860.785286365986
 30
0.0
 11
464.5422673155003
 21
1861.266108971085
 31
0.0
  0
LINE
  5
9D
102
{ACAD_REACTORS
330
DC
102
}
330
4F
100
AcDbEntity
  8
1
  6
Continuous
 62
     7
100
AcDbLine
 10
463.7088414666644
 20
1862.297316500005
 30
0.0
 11
463.7088414666644
 21
1860.785286365986
 31
0.0
  0
LINE
  5
9E
102
{ACAD_REACTORS
330
DC
102
}
330
4F
100
AcDbEntity
  8
1
  6
Continuous
 62
     7
100
AcDbLine
 10
464.7088414666644
 20
1862.297316500005
 30
0.0
 11
463.7088414666644
 21
1862.297316500005
 31
0.0
  0
LINE
  5
9F
102
{ACAD_REACTORS
330
DC
102
}
330
4F
100
AcDbEntity
  8
1
  6
Continuous
 62
     7
100
AcDbLine
 10
463.7088414666644
 20
1862.963983166672
 30
0.0
 11
464.7088414666644
 21
1862.963983166672
 31
0.0
  0
LINE
  5
A0
102
{ACAD_REACTORS
330
DC
102
}
330
4F
100
AcDbEntity
  8
1
  6
Continuous
 62
     7
100
AcDbLine
 10
463.7088414666644
 20
1864.47601330069
 30
0.0
 11
463.7088414666644
 21
1862.963983166672
 31
0.0
  0
LINE
  5
A1
102
{ACAD_REACTORS
330
DC
102
}
330
4F
100
AcDbEntity
  8
1
  6
Continuous
 62
     7
100
AcDbLine
 10
464.5422673155003
 20
1863.995190695592
 30
0.0
 11
463.7088414666644
 21
1864.47601330069
 31
0.0
  0
LINE
  5
A2
102
{ACAD_REACTORS
330
DC
102
}
330
4F
100
AcDbEntity
  8
1
  6
Continuous
 62
     7
100
AcDbLine
 10
463.5420822844942
 20
1865.341878522189
 30
0.0
 11
464.8754156178281
 21
1864.572647752958
 31
0.0
  0
LINE
  5
A3
102
{ACAD_REACTORS
330
DD
102
}
330
4F
100
AcDbEntity
  8
1
  6
Continuous
 62
     7
100
AcDbLine
 10
456.3755081333313
 20
1860.977380442402
 30
0.0
 11
456.3755081333313
 21
1864.283919224275
 31
0.0
  0
LINE
  5
A4
102
{ACAD_REACTORS
330
DD
102
}
330
4F
100
AcDbEntity
  8
1
  6
Continuous
 62
     7
100
AcDbLine
 10
457.0421747999972
 20
1861.169901750602
 30
0.0
 11
457.0421747999972
 21
1860.977380442402
 31
0.0
  0
LINE
  5
A5
102
{ACAD_REACTORS
330
DD
102
}
330
4F
100
AcDbEntity
  8
1
  6
Continuous
 62
     7
100
AcDbLine
 10
457.0421747999972
 20
1864.283919224275
 30
0.0
 11
457.0421747999972
 21
1861.169901750602
 31
0.0
  0
LINE
  5
A6
102
{ACAD_REACTORS
330
DE
102
}
330
4F
100
AcDbEntity
  8
1
  6
Continuous
 62
     7
100
AcDbLine
 10
460.2089339821682
 20
1858.573267298334
 30
0.0
 11
458.0423598310042
 21
1859.823213924005
 31
0.0
  0
LINE
  5
A7
102
{ACAD_REACTORS
330
DE
102
}
330
4F
100
AcDbEntity
  8
1
  6
Continuous
 62
     7
100
AcDbLine
 10
458.3755081333313
 20
1860.400670981371
 30
0.0
 11
460.5420822844942
 21
1859.1507243557
 31
0.0
  0
LINE
  5
A8
102
{ACAD_REACTORS
330
DE
102
}
330
4F
100
AcDbEntity
  8
1
  6
Continuous
 62
     7
100
AcDbLine
 10
458.3755081333313
 20
1865.053149993506
 30
0.0
 11
458.3755081333313
 21
1860.400670981371
 31
0.0
  0
LINE
  5
A9
102
{ACAD_REACTORS
330
DE
102
}
330
4F
100
AcDbEntity
  8
1
  6
Continuous
 62
     7
100
AcDbLine
 10
457.7088414666644
 20
1860.400670981371
 30
0.0
 11
457.7088414666644
 21
1865.053149993506
 31
0.0
  0
LINE
  5
AA
102
{ACAD_REACTORS
330
DF
102
}
330
4F
100
AcDbEntity
  8
1
  6
Continuous
 62
     7
100
AcDbLine
 10
461.8810744497082
 20
1865.994350251611
 30
0.0
 11
460.7088414666644
 21
1863.963983166672
 31
0.0
  0
LINE
  5
AB
102
{ACAD_REACTORS
330
DF
102
}
330
4F
100
AcDbEntity
  8
1
  6
Continuous
 62
     7
100
AcDbLine
 10
462.3755081333313
 20
1859.43891890394
 30
0.0
 11
462.3755081333313
 21
1865.861867145373
 31
0.0
  0
LINE
  5
AC
102
{ACAD_REACTORS
330
DF
102
}
330
4F
100
AcDbEntity
  8
1
  6
Continuous
 62
     7
100
AcDbLine
 10
461.7088414666644
 20
1862.630649833338
 30
0.0
 11
461.7088414666644
 21
1859.43891890394
 31
0.0
  0
LINE
  5
AD
102
{ACAD_REACTORS
330
DF
102
}
330
4F
100
AcDbEntity
  8
1
  6
Continuous
 62
     7
100
AcDbLine
 10
459.7088414666644
 20
1860.978234905972
 30
0.0
 11
459.7088414666644
 21
1862.630649833338
 31
0.0
  0
LINE
  5
AE
102
{ACAD_REACTORS
330
DF
102
}
330
4F
100
AcDbEntity
  8
1
  6
Continuous
 62
     7
100
AcDbLine
 10
459.0421747999972
 20
1862.630649833338
 30
0.0
 11
459.0421747999972
 21
1860.978234905972
 31
0.0
  0
LINE
  5
AF
102
{ACAD_REACTORS
330
DF
102
}
330
4F
100
AcDbEntity
  8
1
  6
Continuous
 62
     7
100
AcDbLine
 10
459.5366084836212
 20
1865.994350251611
 30
0.0
 11
460.7088414666644
 21
1863.963983166672
 31
0.0
  0
LINE
  5
B0
102
{ACAD_REACTORS
330
DF
102
}
330
4F
100
AcDbEntity
  8
1
  6
Continuous
 62
     7
100
AcDbLine
 10
459.0421747999972
 20
1862.630649833338
 30
0.0
 11
459.0421747999972
 21
1865.861867145373
 31
0.0
  0
LINE
  5
B1
330
4F
100
AcDbEntity
  8
1
  6
Continuous
 62
     7
100
AcDbLine
 10
460.7088414666644
 20
1857.630649833338
 30
0.0
 11
452.2924061915223
 21
1862.486285568997
 31
0.0
  0
LINE
  5
B2
330
4F
100
AcDbEntity
  8
1
  6
Continuous
 62
     7
100
AcDbLine
 10
469.1252767418062
 20
1862.486285568997
 30
0.0
 11
460.7088414666644
 21
1857.630649833338
 31
0.0
  0
LINE
  5
B3
330
4F
100
AcDbEntity
  8
1
  6
Continuous
 62
     7
100
AcDbLine
 10
460.7088414666644
 20
1867.630649833338
 30
0.0
 11
469.1252767418062
 21
1862.77501409768
 31
0.0
  0
LINE
  5
B4
330
4F
100
AcDbEntity
  8
1
  6
Continuous
 62
     7
100
AcDbLine
 10
452.2924061915223
 20
1862.77501409768
 30
0.0
 11
460.7088414666644
 21
1867.630649833338
 31
0.0
  0
LINE
  5
B5
102
{ACAD_REACTORS
330
DF
102
}
330
4F
100
AcDbEntity
  8
1
  6
Continuous
 62
     7
100
AcDbLine
 10
459.7088414666644
 20
1864.362700640907
 30
0.0
 11
459.7088414666644
 21
1862.630649833338
 31
0.0
  0
LINE
  5
B6
102
{ACAD_REACTORS
330
DF
102
}
330
4F
100
AcDbEntity
  8
1
  6
Continuous
 62
     7
100
AcDbLine
 10
460.5645038993673
 20
1862.880649833338
 30
0.0
 11
459.7088414666644
 21
1864.362700640907
 31
0.0
  0
LINE
  5
B7
102
{ACAD_REACTORS
330
DF
102
}
330
4F
100
AcDbEntity
  8
1
  6
Continuous
 62
     7
100
AcDbLine
 10
461.7088414666644
 20
1864.362700640907
 30
0.0
 11
460.8531790339623
 21
1862.880649833338
 31
0.0
  0
LINE
  5
B8
102
{ACAD_REACTORS
330
DF
102
}
330
4F
100
AcDbEntity
  8
1
  6
Continuous
 62
     7
100
AcDbLine
 10
461.7088414666644
 20
1862.630649833338
 30
0.0
 11
461.7088414666644
 21
1864.362700640907
 31
0.0
  0
LINE
  5
B9
102
{ACAD_REACTORS
330
DC
102
}
330
4F
100
AcDbEntity
  8
1
  6
Continuous
 62
     7
100
AcDbLine
 10
463.0421747999983
 20
1860.208149673171
 30
0.0
 11
463.0421747999983
 21
1865.053149993506
 31
0.0
  0
LINE
  5
BA
330
4F
100
AcDbEntity
  8
1
  6
Continuous
 62
     7
100
AcDbLine
 10
474.0325407779224
 20
2126.130649833338
 30
0.0
 11
64.03254077792235
 21
2126.130649833338
 31
0.0
  0
LINE
  5
BB
330
4F
100
AcDbEntity
  8
1
  6
Continuous
 62
     7
100
AcDbLine
 10
474.0325407779224
 20
1855.130649833338
 30
0.0
 11
474.0325407779224
 21
2126.130649833338
 31
0.0
  0
LINE
  5
BC
330
4F
100
AcDbEntity
  8
1
  6
Continuous
 62
     7
100
AcDbLine
 10
64.03254077792235
 20
1855.130649833338
 30
0.0
 11
474.0325407779224
 21
1855.130649833338
 31
0.0
  0
LINE
  5
BD
330
4F
100
AcDbEntity
  8
1
  6
Continuous
 62
     7
100
AcDbLine
 10
479.0325407779224
 20
1850.130649833338
 30
0.0
 11
479.0325407779224
 21
2147.130649833338
 31
0.0
  0
LINE
  5
BE
330
4F
100
AcDbEntity
  8
1
  6
Continuous
 62
     7
100
AcDbLine
 10
479.0325407779224
 20
2147.130649833338
 30
0.0
 11
59.03254077792235
 21
2147.130649833338
 31
0.0
  0
LINE
  5
BF
330
4F
100
AcDbEntity
  8
1
  6
Continuous
 62
     7
100
AcDbLine
 10
59.03254077792235
 20
2147.130649833338
 30
0.0
 11
59.03254077792235
 21
1850.130649833338
 31
0.0
  0
LINE
  5
C0
330
4F
100
AcDbEntity
  8
1
  6
Continuous
 62
     7
100
AcDbLine
 10
59.03254077792235
 20
1850.130649833338
 30
0.0
 11
479.0325407779224
 21
1850.130649833338
 31
0.0
  0
LINE
  5
C1
330
4F
100
AcDbEntity
  8
1
  6
Continuous
 62
     7
100
AcDbLine
 10
269.0325407779224
 20
2147.130649833338
 30
0.0
 11
269.0325407779224
 21
2132.130649833338
 31
0.0
  0
LINE
  5
C2
330
4F
100
AcDbEntity
  8
1
  6
Continuous
 62
     7
100
AcDbLine
 10
290.0325407779224
 20
1862.630649833338
 30
0.0
 11
320.0325407779224
 21
1862.630649833338
 31
0.0
  0
LINE
  5
C3
330
4F
100
AcDbEntity
  8
1
  6
Continuous
 62
     7
100
AcDbLine
 10
320.0325407779224
 20
1870.130649833338
 30
0.0
 11
320.0325407779224
 21
1855.130649833338
 31
0.0
  0
LINE
  5
C4
330
4F
100
AcDbEntity
  8
1
  6
Continuous
 62
     7
100
AcDbLine
 10
447.3851421554073
 20
1870.130649833338
 30
0.0
 11
447.3851421554073
 21
1855.130649833338
 31
0.0
  0
LINE
  5
C5
330
4F
100
AcDbEntity
  8
1
  6
Continuous
 62
     7
100
AcDbLine
 10
430.0325407779224
 20
1870.130649833338
 30
0.0
 11
430.0325407779224
 21
1855.130649833338
 31
0.0
  0
ARC
  5
C6
102
{ACAD_REACTORS
330
DC
102
}
330
4F
100
AcDbEntity
  8
1
  6
Continuous
 62
     7
100
AcDbCircle
 10
464.7088414666644
 20
1860.977380442402
 30
0.0
 40
0.3333333333335982
100
AcDbArc
 50
299.9816393689184
 51
119.9816393689665
  0
ARC
  5
C7
102
{ACAD_REACTORS
330
DC
102
}
330
4F
100
AcDbEntity
  8
1
  6
Continuous
 62
     7
100
AcDbCircle
 10
464.7088414666644
 20
1862.630649833338
 30
0.0
 40
0.3333333333330302
100
AcDbArc
 50
270.0
 51
90.0
  0
ARC
  5
C8
102
{ACAD_REACTORS
330
DC
102
}
330
4F
100
AcDbEntity
  8
1
  6
Continuous
 62
     7
100
AcDbCircle
 10
464.7088414666644
 20
1864.283919224275
 30
0.0
 40
0.3333333333338254
100
AcDbArc
 50
240.018360631014
 51
60.01836063108166
  0
ARC
  5
C9
102
{ACAD_REACTORS
330
DD
102
}
330
4F
100
AcDbEntity
  8
1
  6
Continuous
 62
     7
100
AcDbCircle
 10
456.7088414666644
 20
1860.977380442402
 30
0.0
 40
0.333333333333087
100
AcDbArc
 50
180.0
 51
0.0
  0
ARC
  5
CA
102
{ACAD_REACTORS
330
DD
102
}
330
4F
100
AcDbEntity
  8
1
  6
Continuous
 62
     7
100
AcDbCircle
 10
456.7088414666644
 20
1864.283919224275
 30
0.0
 40
0.3333333333328028
100
AcDbArc
 50
0.0
 51
180.0
  0
ARC
  5
CB
102
{ACAD_REACTORS
330
DE
102
}
330
4F
100
AcDbEntity
  8
1
  6
Continuous
 62
     7
100
AcDbCircle
 10
460.3755081333313
 20
1858.861995827017
 30
0.0
 40
0.3333333333333141
100
AcDbArc
 50
240.0183606311663
 51
60.01836063121967
  0
ARC
  5
CC
102
{ACAD_REACTORS
330
DE
102
}
330
4F
100
AcDbEntity
  8
1
  6
Continuous
 62
     7
100
AcDbCircle
 10
458.0421747999972
 20
1865.053149993506
 30
0.0
 40
0.3333333333341102
100
AcDbArc
 50
0.0
 51
180.0
  0
ARC
  5
CD
102
{ACAD_REACTORS
330
DF
102
}
330
4F
100
AcDbEntity
  8
1
  6
Continuous
 62
     7
100
AcDbCircle
 10
462.1105419208564
 20
1865.861867145373
 30
0.0
 40
0.264966212474917
100
AcDbArc
 50
0.0
 51
149.9999999999515
  0
ARC
  5
CE
102
{ACAD_REACTORS
330
DF
102
}
330
4F
100
AcDbEntity
  8
1
  6
Continuous
 62
     7
100
AcDbCircle
 10
462.0421747999983
 20
1859.43891890394
 30
0.0
 40
0.3333333333338828
100
AcDbArc
 50
180.0
 51
0.0
  0
ARC
  5
CF
102
{ACAD_REACTORS
330
DF
102
}
330
4F
100
AcDbEntity
  8
1
  6
Continuous
 62
     7
100
AcDbCircle
 10
459.3755081333313
 20
1860.978234905972
 30
0.0
 40
0.3333333333341102
100
AcDbArc
 50
180.0
 51
0.0
  0
ARC
  5
D0
102
{ACAD_REACTORS
330
DF
102
}
330
4F
100
AcDbEntity
  8
1
  6
Continuous
 62
     7
100
AcDbCircle
 10
459.3071410124733
 20
1865.861867145373
 30
0.0
 40
0.2649662124751995
100
AcDbArc
 50
30.00000000008539
 51
180.0
  0
ARC
  5
D1
102
{ACAD_REACTORS
330
DC
102
}
330
4F
100
AcDbEntity
  8
1
  6
Continuous
 62
     7
100
AcDbCircle
 10
463.3755081333313
 20
1860.208149673171
 30
0.0
 40
0.3333333333330302
100
AcDbArc
 50
180.0
 51
299.9816393687998
  0
ARC
  5
D2
102
{ACAD_REACTORS
330
DC
102
}
330
4F
100
AcDbEntity
  8
1
  6
Continuous
 62
     7
100
AcDbCircle
 10
463.3755081333313
 20
1865.053149993506
 30
0.0
 40
0.3333333333333974
100
AcDbArc
 50
60.01836063121967
 51
180.0
  0
ARC
  5
D3
330
4F
100
AcDbEntity
  8
1
  6
Continuous
 62
     7
100
AcDbCircle
 10
469.0419896662233
 20
1862.630649833338
 30
0.0
 40
0.1666666666671418
100
AcDbArc
 50
299.981639369279
 51
60.01836063083819
  0
ARC
  5
D4
330
4F
100
AcDbEntity
  8
1
  6
Continuous
 62
     7
100
AcDbCircle
 10
452.3756932671054
 20
1862.630649833338
 30
0.0
 40
0.1666666666678463
100
AcDbArc
 50
119.9816393692295
 51
240.0183606306533
  0
ARC
  5
D5
102
{ACAD_REACTORS
330
DE
102
}
330
4F
100
AcDbEntity
  8
1
  6
Continuous
 62
     7
100
AcDbCircle
 10
458.3755081333313
 20
1860.400670981371
 30
0.0
 40
0.666666666666913
100
AcDbArc
 50
180.0
 51
240.0183606311083
  0
ARC
  5
D6
102
{ACAD_REACTORS
330
DF
102
}
330
4F
100
AcDbEntity
  8
1
  6
Continuous
 62
     7
100
AcDbCircle
 10
460.7088414666644
 20
1862.963983166672
 30
0.0
 40
0.1666666666667045
100
AcDbArc
 50
210.0000000002331
 51
329.9999999999036
  0
MTEXT
  5
D8
330
4F
100
AcDbEntity
  8
1
 62
     7
100
AcDbMText
 10
438.7088414666644
 20
1866.391289254094
 30
0.0
 40
3.0
 41
0.0
 71
     5
 72
     1
  1
Scale
  7
CONVERTER_11
 73
     1
 44
1.32052821128451
  0
MTEXT
  5
D9
330
4F
100
AcDbEntity
  8
1
 62
     7
100
AcDbMText
 10
292.0325407779224
 20
1858.880649833338
 30
0.0
 40
3.0
 41
0.0
 71
     4
 72
     1
  1
Sign.
  7
CONVERTER_11
 73
     1
 44
1.32052821128451
  0
MTEXT
  5
DA
330
4F
100
AcDbEntity
  8
1
 62
     7
100
AcDbMText
 10
292.0325407779224
 20
1866.391289254094
 30
0.0
 40
3.0
 41
0.0
 71
     4
 72
     1
  1
Date
  7
CONVERTER_11
 73
     1
 44
1.32052821128451
  0
MTEXT
  5
DB
330
4F
100
AcDbEntity
  8
1
 62
     7
100
AcDbMText
 10
272.0325407779224
 20
2131.130649833338
 30
0.0
 40
4.0
 41
0.0
 71
     5
 72
     1
  1
Diritti riservati      All rights reserved
  7
CONVERTER_11
 73
     1
 44
1.32052821128451
  0
HATCH
  5
DC
330
4F
100
AcDbEntity
  8
1
  6
Continuous
 62
     7
100
AcDbHatch
 10
0.0
 20
0.0
 30
0.0
210
0.0
220
0.0
230
1.0
  2
SOLID
 70
     1
 71
     1
 91
        1
 92
        1
 93
       14
 72
     2
 10
463.3755081333313
 20
1865.053149993506
 40
0.3333333333333974
 50
60.01836063121967
 51
180.0
 73
     1
 72
     1
 10
463.0421747999983
 20
1865.053149993506
 11
463.0421747999983
 21
1860.208149673171
 72
     2
 10
463.3755081333313
 20
1860.208149673171
 40
0.3333333333330302
 50
180.0
 51
299.9816393687998
 73
     1
 72
     1
 10
463.5420822844942
 20
1859.919421144488
 11
464.8754156178281
 21
1860.688651913719
 72
     2
 10
464.7088414666644
 20
1860.977380442402
 40
0.3333333333335982
 50
299.9816393689184
 51
479.9816393689665
 73
     1
 72
     1
 10
464.5422673155003
 20
1861.266108971085
 11
463.7088414666644
 21
1860.785286365986
 72
     1
 10
463.7088414666644
 20
1860.785286365986
 11
463.7088414666644
 21
1862.297316500005
 72
     1
 10
463.7088414666644
 20
1862.297316500005
 11
464.7088414666644
 21
1862.297316500005
 72
     2
 10
464.7088414666644
 20
1862.630649833338
 40
0.3333333333330302
 50
270.0
 51
450.0
 73
     1
 72
     1
 10
464.7088414666644
 20
1862.963983166672
 11
463.7088414666644
 21
1862.963983166672
 72
     1
 10
463.7088414666644
 20
1862.963983166672
 11
463.7088414666644
 21
1864.47601330069
 72
     1
 10
463.7088414666644
 20
1864.47601330069
 11
464.5422673155003
 21
1863.995190695592
 72
     2
 10
464.7088414666644
 20
1864.283919224275
 40
0.3333333333338254
 50
240.018360631014
 51
420.0183606310816
 73
     1
 72
     1
 10
464.8754156178281
 20
1864.572647752958
 11
463.5420822844942
 21
1865.341878522189
 97
       14
330
C8
330
A1
330
A0
330
9F
330
C7
330
9E
330
9D
330
9C
330
C6
330
9B
330
D1
330
B9
330
D2
330
A2
 75
     0
 76
     1
 98
        1
 10
0.0
 20
0.0
  0
HATCH
  5
DD
330
4F
100
AcDbEntity
  8
1
  6
Continuous
 62
     7
100
AcDbHatch
 10
0.0
 20
0.0
 30
0.0
210
0.0
220
0.0
230
1.0
  2
SOLID
 70
     1
 71
     1
 91
        1
 92
        1
 93
        5
 72
     2
 10
456.7088414666644
 20
1864.283919224275
 40
0.3333333333328028
 50
0.0
 51
180.0
 73
     1
 72
     1
 10
456.3755081333313
 20
1864.283919224275
 11
456.3755081333313
 21
1860.977380442402
 72
     2
 10
456.7088414666644
 20
1860.977380442402
 40
0.333333333333087
 50
180.0
 51
360.0
 73
     1
 72
     1
 10
457.0421747999972
 20
1860.977380442402
 11
457.0421747999972
 21
1861.169901750602
 72
     1
 10
457.0421747999972
 20
1861.169901750602
 11
457.0421747999972
 21
1864.283919224275
 97
        5
330
CA
330
A3
330
C9
330
A4
330
A5
 75
     0
 76
     1
 98
        1
 10
0.0
 20
0.0
  0
HATCH
  5
DE
330
4F
100
AcDbEntity
  8
1
  6
Continuous
 62
     7
100
AcDbHatch
 10
0.0
 20
0.0
 30
0.0
210
0.0
220
0.0
230
1.0
  2
SOLID
 70
     1
 71
     1
 91
        1
 92
        1
 93
        7
 72
     2
 10
458.0421747999972
 20
1865.053149993506
 40
0.3333333333341102
 50
0.0
 51
180.0
 73
     1
 72
     1
 10
457.7088414666644
 20
1865.053149993506
 11
457.7088414666644
 21
1860.400670981371
 72
     2
 10
458.3755081333313
 20
1860.400670981371
 40
0.666666666666913
 50
180.0
 51
240.0183606311083
 73
     1
 72
     1
 10
458.0423598310042
 20
1859.823213924005
 11
460.2089339821682
 21
1858.573267298334
 72
     2
 10
460.3755081333313
 20
1858.861995827017
 40
0.3333333333333141
 50
240.0183606311663
 51
420.0183606312197
 73
     1
 72
     1
 10
460.5420822844942
 20
1859.1507243557
 11
458.3755081333313
 21
1860.400670981371
 72
     1
 10
458.3755081333313
 20
1860.400670981371
 11
458.3755081333313
 21
1865.053149993506
 97
        7
330
CC
330
A9
330
D5
330
A6
330
CB
330
A7
330
A8
 75
     0
 76
     1
 98
        1
 10
0.0
 20
0.0
  0
HATCH
  5
DF
330
4F
100
AcDbEntity
  8
1
  6
Continuous
 62
     7
100
AcDbHatch
 10
0.0
 20
0.0
 30
0.0
210
0.0
220
0.0
230
1.0
  2
SOLID
 70
     1
 71
     1
 91
        1
 92
        1
 93
       16
 72
     2
 10
462.1105419208564
 20
1865.861867145373
 40
0.264966212474917
 50
210.0000000000485
 51
360.0
 73
     0
 72
     1
 10
462.3755081333313
 20
1865.861867145373
 11
462.3755081333313
 21
1859.43891890394
 72
     2
 10
462.0421747999983
 20
1859.43891890394
 40
0.3333333333338828
 50
0.0
 51
180.0
 73
     0
 72
     1
 10
461.7088414666644
 20
1859.43891890394
 11
461.7088414666644
 21
1862.630649833338
 72
     1
 10
461.7088414666644
 20
1862.630649833338
 11
461.7088414666644
 21
1864.362700640907
 72
     1
 10
461.7088414666644
 20
1864.362700640907
 11
460.8531790339623
 21
1862.880649833338
 72
     2
 10
460.7088414666644
 20
1862.963983166672
 40
0.1666666666667045
 50
30.0000000000964
 51
149.9999999997668
 73
     0
 72
     1
 10
460.5645038993673
 20
1862.880649833338
 11
459.7088414666644
 21
1864.362700640907
 72
     1
 10
459.7088414666644
 20
1864.362700640907
 11
459.7088414666644
 21
1862.630649833338
 72
     1
 10
459.7088414666644
 20
1862.630649833338
 11
459.7088414666644
 21
1860.978234905972
 72
     2
 10
459.3755081333313
 20
1860.978234905972
 40
0.3333333333341102
 50
0.0
 51
180.0
 73
     0
 72
     1
 10
459.0421747999972
 20
1860.978234905972
 11
459.0421747999972
 21
1862.630649833338
 72
     1
 10
459.0421747999972
 20
1862.630649833338
 11
459.0421747999972
 21
1865.861867145373
 72
     2
 10
459.3071410124733
 20
1865.861867145373
 40
0.2649662124751995
 50
180.0
 51
329.9999999999147
 73
     0
 72
     1
 10
459.5366084836212
 20
1865.994350251611
 11
460.7088414666644
 21
1863.963983166672
 72
     1
 10
460.7088414666644
 20
1863.963983166672
 11
461.8810744497082
 21
1865.994350251611
 97
       16
330
AF
330
D0
330
B0
330
AE
330
CF
330
AD
330
B5
330
B6
330
D6
330
B7
330
B8
330
AC
330
CE
330
AB
330
CD
330
AA
 75
     0
 76
     1
 98
        1
 10
0.0
 20
0.0
  0
ENDBLK
  5
51
330
4F
100
AcDbEntity
  8
0
100
AcDbBlockEnd
  0
BLOCK
  5
54
330
52
100
AcDbEntity
  8
0
100
AcDbBlockBegin
  2
A4_oriz
 70
     0
 10
652.3569163450413
 20
1727.955034610929
 30
0.0
  3
A4_oriz
  1

  0
INSERT
  5
53
330
52
100
AcDbEntity
  8
1
100
AcDbBlockReference
  2
_formato_A4
 10
652.3569163450422
 20
1727.95503461093
 30
0.0
  0
ENDBLK
  5
55
330
52
100
AcDbEntity
  8
0
100
AcDbBlockEnd
  0
BLOCK
  5
35C
330
355
100
AcDbEntity
  8
0
100
AcDbBlockBegin
  2
*D4
 70
     1
 10
0.0
 20
0.0
 30
0.0
  3
*D4
  1

  0
LINE
  5
356
330
355
100
AcDbEntity
  8
1
  6
Continuous
 62
     2
100
AcDbLine
 10
416.6778177193738
 20
1864.03138204688
 30
0.0
 11
531.6822690472801
 21
1864.03138204688
 31
0.0
  0
LINE
  5
357
330
355
100
AcDbEntity
  8
1
  6
Continuous
 62
     2
100
AcDbLine
 10
531.6822690472801
 20
1875.221297327548
 30
0.0
 11
531.6822690472801
 21
1863.03138204688
 31
0.0
  0
LINE
  5
358
330
355
100
AcDbEntity
  8
1
  6
Continuous
 62
     2
100
AcDbLine
 10
416.6778177193738
 20
1875.221297327548
 30
0.0
 11
416.6778177193738
 21
1863.03138204688
 31
0.0
  0
SOLID
  5
359
330
355
100
AcDbEntity
  8
1
 62
     2
100
AcDbTrace
 10
419.6778177193738
 20
1864.426339539642
 30
0.0
 11
419.6778177193738
 21
1863.636424554118
 31
0.0
 12
416.6778177193738
 22
1864.03138204688
 32
0.0
 13
416.6778177193738
 23
1864.03138204688
 33
0.0
  0
SOLID
  5
35A
330
355
100
AcDbEntity
  8
1
 62
     2
100
AcDbTrace
 10
528.6822690472801
 20
1863.636424554118
 30
0.0
 11
528.6822690472801
 21
1864.426339539642
 31
0.0
 12
531.6822690472801
 22
1864.03138204688
 32
0.0
 13
531.6822690472801
 23
1864.03138204688
 33
0.0
  0
MTEXT
  5
35B
330
355
100
AcDbEntity
  8
1
 62
     4
100
AcDbMText
 10
471.4800433833269
 20
1866.03138204688
 30
0.0
 40
3.0
 41
0.0
 71
     7
 72
     1
  1
115
  7
CONVERTER_13
 11
0.9999999999970619
 21
2.424068405545306E-6
 31
0.0
 73
     1
 44
0.60024009603842
  0
ENDBLK
  5
35D
330
355
100
AcDbEntity
  8
0
100
AcDbBlockEnd
  0
BLOCK
  5
367
330
360
100
AcDbEntity
  8
0
100
AcDbBlockBegin
  2
*D5
 70
     1
 10
0.0
 20
0.0
 30
0.0
  3
*D5
  1

  0
LINE
  5
361
330
360
100
AcDbEntity
  8
1
  6
Continuous
 62
     2
100
AcDbLine
 10
409.1778177193738
 20
1854.65270218707
 30
0.0
 11
539.18226904728
 21
1854.65270218707
 31
0.0
  0
LINE
  5
362
330
360
100
AcDbEntity
  8
1
  6
Continuous
 62
     2
100
AcDbLine
 10
539.18226904728
 20
1871.971297327548
 30
0.0
 11
539.18226904728
 21
1853.65270218707
 31
0.0
  0
LINE
  5
363
330
360
100
AcDbEntity
  8
1
  6
Continuous
 62
     2
100
AcDbLine
 10
409.1778177193738
 20
1871.971297327548
 30
0.0
 11
409.1778177193738
 21
1853.65270218707
 31
0.0
  0
SOLID
  5
364
330
360
100
AcDbEntity
  8
1
 62
     2
100
AcDbTrace
 10
412.1778177193738
 20
1855.047659679832
 30
0.0
 11
412.1778177193738
 21
1854.257744694308
 31
0.0
 12
409.1778177193738
 22
1854.65270218707
 32
0.0
 13
409.1778177193738
 23
1854.65270218707
 33
0.0
  0
SOLID
  5
365
330
360
100
AcDbEntity
  8
1
 62
     2
100
AcDbTrace
 10
536.18226904728
 20
1854.257744694308
 30
0.0
 11
536.18226904728
 21
1855.047659679832
 31
0.0
 12
539.18226904728
 22
1854.65270218707
 32
0.0
 13
539.18226904728
 23
1854.65270218707
 33
0.0
  0
MTEXT
  5
366
330
360
100
AcDbEntity
  8
1
 62
     4
100
AcDbMText
 10
471.0300433833269
 20
1856.65270218707
 30
0.0
 40
3.0
 41
0.0
 71
     7
 72
     1
  1
130
  7
CONVERTER_13
 11
0.9999999999970619
 21
2.424068405545306E-6
 31
0.0
 73
     1
 44
0.60024009603842
  0
ENDBLK
  5
368
330
360
100
AcDbEntity
  8
0
100
AcDbBlockEnd
  0
BLOCK
  5
372
330
36B
100
AcDbEntity
  8
0
100
AcDbBlockBegin
  2
*D6
 70
     1
 10
0.0
 20
0.0
 30
0.0
  3
*D6
  1

  0
LINE
  5
36C
330
36B
100
AcDbEntity
  8
1
  6
Continuous
 62
     2
100
AcDbLine
 10
519.2834074464059
 20
1780.52283728589
 30
0.0
 11
711.7878587743122
 21
1780.52283728589
 31
0.0
  0
LINE
  5
36D
330
36B
100
AcDbEntity
  8
1
  6
Continuous
 62
     2
100
AcDbLine
 10
711.7878587743122
 20
1797.522774678812
 30
0.0
 11
711.7878587743122
 21
1779.52283728589
 31
0.0
  0
LINE
  5
36E
330
36B
100
AcDbEntity
  8
1
  6
Continuous
 62
     2
100
AcDbLine
 10
519.2834074464059
 20
1797.522774678812
 30
0.0
 11
519.2834074464059
 21
1779.52283728589
 31
0.0
  0
SOLID
  5
36F
330
36B
100
AcDbEntity
  8
1
 62
     2
100
AcDbTrace
 10
522.2834074464059
 20
1780.917794778652
 30
0.0
 11
522.2834074464059
 21
1780.127879793128
 31
0.0
 12
519.2834074464059
 22
1780.52283728589
 32
0.0
 13
519.2834074464059
 23
1780.52283728589
 33
0.0
  0
SOLID
  5
370
330
36B
100
AcDbEntity
  8
1
 62
     2
100
AcDbTrace
 10
708.7878587743122
 20
1780.127879793128
 30
0.0
 11
708.7878587743122
 21
1780.917794778652
 31
0.0
 12
711.7878587743122
 22
1780.52283728589
 32
0.0
 13
711.7878587743122
 23
1780.52283728589
 33
0.0
  0
MTEXT
  5
371
330
36B
100
AcDbEntity
  8
1
 62
     4
100
AcDbMText
 10
610.5106331103591
 20
1782.82283728589
 30
0.0
 40
3.0
 41
0.0
 71
     7
 72
     1
  1
192,5
  7
CONVERTER_13
 11
0.9999999999970619
 21
2.424068405545306E-6
 31
0.0
 73
     1
 44
0.60024009603842
  0
ENDBLK
  5
373
330
36B
100
AcDbEntity
  8
0
100
AcDbBlockEnd
  0
BLOCK
  5
37E
330
376
100
AcDbEntity
  8
0
100
AcDbBlockBegin
  2
*D7
 70
     1
 10
0.0
 20
0.0
 30
0.0
  3
*D7
  1

  0
LINE
  5
377
330
376
100
AcDbEntity
  8
1
  6
Continuous
 62
     2
100
AcDbLine
 10
730.554541640844
 20
1736.162047190399
 30
0.0
 11
730.554541640844
 21
1710.662047190399
 31
0.0
  0
LINE
  5
378
330
376
100
AcDbEntity
  8
1
  6
Continuous
 62
     2
100
AcDbLine
 10
730.554541640844
 20
1768.662047190399
 30
0.0
 11
730.554541640844
 21
1743.162047190399
 31
0.0
  0
LINE
  5
379
330
376
100
AcDbEntity
  8
1
  6
Continuous
 62
     2
100
AcDbLine
 10
683.7879267170614
 20
1710.662047190399
 30
0.0
 11
731.554541640844
 21
1710.662047190399
 31
0.0
  0
LINE
  5
37A
330
376
100
AcDbEntity
  8
1
  6
Continuous
 62
     2
100
AcDbLine
 10
705.287858774312
 20
1768.662047190399
 30
0.0
 11
731.554541640844
 21
1768.662047190399
 31
0.0
  0
SOLID
  5
37B
330
376
100
AcDbEntity
  8
1
 62
     2
100
AcDbTrace
 10
730.9494991336062
 20
1765.662047190399
 30
0.0
 11
730.1595841480819
 21
1765.662047190399
 31
0.0
 12
730.554541640844
 22
1768.662047190399
 32
0.0
 13
730.554541640844
 23
1768.662047190399
 33
0.0
  0
SOLID
  5
37C
330
376
100
AcDbEntity
  8
1
 62
     2
100
AcDbTrace
 10
730.1595841480819
 20
1713.662047190399
 30
0.0
 11
730.9494991336062
 21
1713.662047190399
 31
0.0
 12
730.554541640844
 22
1710.662047190399
 32
0.0
 13
730.554541640844
 23
1710.662047190399
 33
0.0
  0
MTEXT
  5
37D
330
376
100
AcDbEntity
  8
1
 62
     4
100
AcDbMText
 10
728.304541640844
 20
1738.162047190399
 30
0.0
 40
3.0
 41
0.0
 71
     7
 72
     1
  1
58
  7
CONVERTER_13
 11
0.9999999999970619
 21
2.424068405545306E-6
 31
0.0
 73
     1
 44
0.60024009603842
  0
ENDBLK
  5
37F
330
376
100
AcDbEntity
  8
0
100
AcDbBlockEnd
  0
BLOCK
  5
38A
330
382
100
AcDbEntity
  8
0
100
AcDbBlockBegin
  2
*D8
 70
     1
 10
0.0
 20
0.0
 30
0.0
  3
*D8
  1

  0
LINE
  5
383
330
382
100
AcDbEntity
  8
1
  6
Continuous
 62
     2
100
AcDbLine
 10
489.753971623883
 20
1814.822774678799
 30
0.0
 11
489.753971623883
 21
1825.822774678799
 31
0.0
  0
LINE
  5
384
330
382
100
AcDbEntity
  8
1
  6
Continuous
 62
     2
100
AcDbLine
 10
489.753971623883
 20
1796.822774678799
 30
0.0
 11
489.753971623883
 21
1807.822774678799
 31
0.0
  0
LINE
  5
385
330
382
100
AcDbEntity
  8
1
  6
Continuous
 62
     2
100
AcDbLine
 10
462.0278510678517
 20
1825.822774678799
 30
0.0
 11
490.753971623883
 21
1825.822774678799
 31
0.0
  0
LINE
  5
386
330
382
100
AcDbEntity
  8
1
  6
Continuous
 62
     2
100
AcDbLine
 10
473.5278510678467
 20
1796.822774678799
 30
0.0
 11
490.753971623883
 21
1796.822774678799
 31
0.0
  0
SOLID
  5
387
330
382
100
AcDbEntity
  8
1
 62
     2
100
AcDbTrace
 10
489.3590141311208
 20
1799.822774678799
 30
0.0
 11
490.1489291166451
 21
1799.822774678799
 31
0.0
 12
489.753971623883
 22
1796.822774678799
 32
0.0
 13
489.753971623883
 23
1796.822774678799
 33
0.0
  0
SOLID
  5
388
330
382
100
AcDbEntity
  8
1
 62
     2
100
AcDbTrace
 10
490.1489291166451
 20
1822.822774678799
 30
0.0
 11
489.3590141311208
 21
1822.822774678799
 31
0.0
 12
489.753971623883
 22
1825.822774678799
 32
0.0
 13
489.753971623883
 23
1825.822774678799
 33
0.0
  0
MTEXT
  5
389
330
382
100
AcDbEntity
  8
1
 62
     4
100
AcDbMText
 10
487.503971623883
 20
1809.822774678799
 30
0.0
 40
3.0
 41
0.0
 71
     7
 72
     1
  1
29
  7
CONVERTER_13
 11
0.9999999999970619
 21
2.424068405545306E-6
 31
0.0
 73
     1
 44
0.60024009603842
  0
ENDBLK
  5
38B
330
382
100
AcDbEntity
  8
0
100
AcDbBlockEnd
  0
BLOCK
  5
396
330
38E
100
AcDbEntity
  8
0
100
AcDbBlockBegin
  2
*D9
 70
     1
 10
0.0
 20
0.0
 30
0.0
  3
*D9
  1

  0
LINE
  5
38F
330
38E
100
AcDbEntity
  8
1
  6
Continuous
 62
     2
100
AcDbLine
 10
549.592110815465
 20
1897.721297327548
 30
0.0
 11
549.592110815465
 21
1910.221297327548
 31
0.0
  0
LINE
  5
390
330
38E
100
AcDbEntity
  8
1
  6
Continuous
 62
     2
100
AcDbLine
 10
549.592110815465
 20
1878.221297327548
 30
0.0
 11
549.592110815465
 21
1890.721297327548
 31
0.0
  0
LINE
  5
391
330
38E
100
AcDbEntity
  8
1
  6
Continuous
 62
     2
100
AcDbLine
 10
545.43226904728
 20
1910.221297327548
 30
0.0
 11
550.592110815465
 21
1910.221297327548
 31
0.0
  0
LINE
  5
392
330
38E
100
AcDbEntity
  8
1
  6
Continuous
 62
     2
100
AcDbLine
 10
545.43226904728
 20
1878.221297327548
 30
0.0
 11
550.592110815465
 21
1878.221297327548
 31
0.0
  0
SOLID
  5
393
330
38E
100
AcDbEntity
  8
1
 62
     2
100
AcDbTrace
 10
549.1971533227029
 20
1881.221297327548
 30
0.0
 11
549.9870683082272
 21
1881.221297327548
 31
0.0
 12
549.592110815465
 22
1878.221297327548
 32
0.0
 13
549.592110815465
 23
1878.221297327548
 33
0.0
  0
SOLID
  5
394
330
38E
100
AcDbEntity
  8
1
 62
     2
100
AcDbTrace
 10
549.9870683082272
 20
1907.221297327548
 30
0.0
 11
549.1971533227029
 21
1907.221297327548
 31
0.0
 12
549.592110815465
 22
1910.221297327548
 32
0.0
 13
549.592110815465
 23
1910.221297327548
 33
0.0
  0
MTEXT
  5
395
330
38E
100
AcDbEntity
  8
1
 62
     4
100
AcDbMText
 10
547.342110815465
 20
1892.721297327548
 30
0.0
 40
3.0
 41
0.0
 71
     7
 72
     1
  1
32
  7
CONVERTER_13
 11
0.9999999999970619
 21
2.424068405545306E-6
 31
0.0
 73
     1
 44
0.60024009603842
  0
ENDBLK
  5
397
330
38E
100
AcDbEntity
  8
0
100
AcDbBlockEnd
  0
BLOCK
  5
3A2
330
39A
100
AcDbEntity
  8
0
100
AcDbBlockBegin
  2
*D10
 70
     1
 10
0.0
 20
0.0
 30
0.0
  3
*D10
  1

  0
LINE
  5
39B
330
39A
100
AcDbEntity
  8
1
  6
Continuous
 62
     2
100
AcDbLine
 10
559.56204776936
 20
1890.721297327548
 30
0.0
 11
559.56204776936
 21
1875.721297327548
 31
0.0
  0
LINE
  5
39C
330
39A
100
AcDbEntity
  8
1
  6
Continuous
 62
     2
100
AcDbLine
 10
559.56204776936
 20
1912.721297327548
 30
0.0
 11
559.56204776936
 21
1897.721297327548
 31
0.0
  0
LINE
  5
39D
330
39A
100
AcDbEntity
  8
1
  6
Continuous
 62
     2
100
AcDbLine
 10
532.18226904728
 20
1875.721297327548
 30
0.0
 11
560.56204776936
 21
1875.721297327548
 31
0.0
  0
LINE
  5
39E
330
39A
100
AcDbEntity
  8
1
  6
Continuous
 62
     2
100
AcDbLine
 10
532.18226904728
 20
1912.721297327548
 30
0.0
 11
560.56204776936
 21
1912.721297327548
 31
0.0
  0
SOLID
  5
39F
330
39A
100
AcDbEntity
  8
1
 62
     2
100
AcDbTrace
 10
559.9570052621222
 20
1909.721297327548
 30
0.0
 11
559.1670902765978
 21
1909.721297327548
 31
0.0
 12
559.56204776936
 22
1912.721297327548
 32
0.0
 13
559.56204776936
 23
1912.721297327548
 33
0.0
  0
SOLID
  5
3A0
330
39A
100
AcDbEntity
  8
1
 62
     2
100
AcDbTrace
 10
559.1670902765978
 20
1878.721297327548
 30
0.0
 11
559.9570052621222
 21
1878.721297327548
 31
0.0
 12
559.56204776936
 22
1875.721297327548
 32
0.0
 13
559.56204776936
 23
1875.721297327548
 33
0.0
  0
MTEXT
  5
3A1
330
39A
100
AcDbEntity
  8
1
 62
     4
100
AcDbMText
 10
557.31204776936
 20
1892.721297327548
 30
0.0
 40
3.0
 41
0.0
 71
     7
 72
     1
  1
37
  7
CONVERTER_13
 11
0.9999999999970619
 21
2.424068405545306E-6
 31
0.0
 73
     1
 44
0.60024009603842
  0
ENDBLK
  5
3A3
330
39A
100
AcDbEntity
  8
0
100
AcDbBlockEnd
  0
BLOCK
  5
3AB
330
3A6
100
AcDbEntity
  8
0
100
AcDbBlockBegin
  2
*D11
 70
     1
 10
0.0
 20
0.0
 30
0.0
  3
*D11
  1

  0
LINE
  5
3A7
330
3A6
100
AcDbEntity
  8
1
  6
Continuous
 62
     2
100
AcDbLine
 10
416.451727846855
 20
1907.546838231333
 30
0.0
 11
397.6148752255999
 21
1914.472740662632
 31
0.0
  0
SOLID
  5
3A8
330
3A6
100
AcDbEntity
  8
1
 62
     2
100
AcDbTrace
 10
403.1754646928068
 20
1912.007424301072
 30
0.0
 11
403.4480576370999
 21
1912.748814057596
 31
0.0
 12
406.1274683110752
 22
1911.342844690477
 32
0.0
 13
406.1274683110752
 23
1911.342844690477
 33
0.0
  0
SOLID
  5
3A9
330
3A6
100
AcDbEntity
  8
1
 62
     2
100
AcDbTrace
 10
415.1801707459408
 20
1908.435170354024
 30
0.0
 11
414.9075778016476
 21
1907.6937805975
 31
0.0
 12
412.2281671276724
 22
1909.099749964619
 32
0.0
 13
412.2281671276724
 23
1909.099749964619
 33
0.0
  0
MTEXT
  5
3AA
330
3A6
100
AcDbEntity
  8
1
 62
     4
100
AcDbMText
 10
399.1969836679713
 20
1916.341572617779
 30
0.0
 40
3.0
 41
0.0
 71
     7
 72
     1
  1
\C4;\U+00f8\C4;6,5
  7
CONVERTER_13
 11
0.938569048707261
 21
-0.3450914962857637
 31
0.0
 73
     1
 44
0.60024009603842
  0
ENDBLK
  5
3AC
330
3A6
100
AcDbEntity
  8
0
100
AcDbBlockEnd
  0
ENDSEC
  0
SECTION
  2
ENTITIES
  0
INSERT
  5
56
330
1F
100
AcDbEntity
  8
1
100
AcDbBlockReference
  2
ILME6
 10
558.5334074464059
 20
1808.022774678812
 30
0.0
  0
INSERT
  5
57
330
1F
100
AcDbEntity
  8
0
100
AcDbBlockReference
  2
A4_oriz
 10
652.3569163450413
 20
1727.955034610929
 30
0.0
  0
POINT
  5
E0
330
1F
100
AcDbEntity
  8
Bemaßungen_TC_020513_DIN_
 62
     7
100
AcDbPoint
 10
531.68226904728
 20
1875.721297327548
 30
0.0
  0
POINT
  5
E1
330
1F
100
AcDbEntity
  8
Bemaßungen_TC_020513_DIN_
 62
     7
100
AcDbPoint
 10
531.68226904728
 20
1912.721297327548
 30
0.0
  0
POINT
  5
E2
330
1F
100
AcDbEntity
  8
Bemaßungen_TC_020513_DIN_
 62
     7
100
AcDbPoint
 10
539.18226904728
 20
1878.221297327548
 30
0.0
  0
POINT
  5
E3
330
1F
100
AcDbEntity
  8
Bemaßungen_TC_020513_DIN_
 62
     7
100
AcDbPoint
 10
539.18226904728
 20
1910.221297327548
 30
0.0
  0
POINT
  5
E4
330
1F
100
AcDbEntity
  8
Bemaßungen_TC_020513_DIN_
 62
     7
100
AcDbPoint
 10
539.18226904728
 20
1878.221297327548
 30
0.0
  0
POINT
  5
E5
330
1F
100
AcDbEntity
  8
Bemaßungen_TC_020513_DIN_
 62
     7
100
AcDbPoint
 10
409.1778177193737
 20
1878.221297327548
 30
0.0
  0
POINT
  5
E6
330
1F
100
AcDbEntity
  8
Bemaßungen_TC_020513_DIN_
 62
     7
100
AcDbPoint
 10
416.6778177193737
 20
1875.721297327548
 30
0.0
  0
POINT
  5
E7
330
1F
100
AcDbEntity
  8
Bemaßungen_TC_020513_DIN_
 62
     7
100
AcDbPoint
 10
531.68226904728
 20
1875.721297327548
 30
0.0
  0
POINT
  5
E8
330
1F
100
AcDbEntity
  8
Bemaßungen_TC_020513_DIN_
 62
     7
100
AcDbPoint
 10
473.0278510678467
 20
1796.822774678799
 30
0.0
  0
POINT
  5
E9
330
1F
100
AcDbEntity
  8
Bemaßungen_TC_020513_DIN_
 62
     7
100
AcDbPoint
 10
415.0278510678547
 20
1806.822774678799
 30
0.0
  0
POINT
  5
EA
330
1F
100
AcDbEntity
  8
Bemaßungen_TC_020513_DIN_
 62
     7
100
AcDbPoint
 10
469.4919526829917
 20
1825.822774678799
 30
0.0
  0
POINT
  5
EB
330
1F
100
AcDbEntity
  8
Bemaßungen_TC_020513_DIN_
 62
     7
100
AcDbPoint
 10
473.0278510678467
 20
1796.822774678799
 30
0.0
  0
POINT
  5
EC
330
1F
100
AcDbEntity
  8
Bemaßungen_TC_020513_DIN_
 62
     7
100
AcDbPoint
 10
426.5278510678517
 20
1825.822774678799
 30
0.0
  0
POINT
  5
ED
330
1F
100
AcDbEntity
  8
Bemaßungen_TC_020513_DIN_
 62
     7
100
AcDbPoint
 10
458.0278510678458
 20
1796.822774678799
 30
0.0
  0
LWPOLYLINE
  5
EE
330
1F
100
AcDbEntity
  8
1
  6
DOT_CENTER
 62
     7
100
AcDbPolyline
 90
        2
 70
     0
 43
0.5
 10
474.4300433833268
 20
1919.52825412498
 10
474.4300433833268
 20
1872.63388186537
  0
LWPOLYLINE
  5
EF
330
1F
100
AcDbEntity
  8
1
  6
DOT_CENTER
 62
     7
100
AcDbPolyline
 90
        2
 70
     0
 43
0.5
 10
539.18226904728
 20
1894.221297327548
 10
402.3649397691506
 20
1894.221297327548
  0
LINE
  5
F0
330
1F
100
AcDbEntity
  8
1
  6
DOT_CENTER
 62
     2
100
AcDbLine
 10
528.5304890443505
 20
1739.662047190399
 30
0.0
 11
703.6628779903162
 21
1739.662047190399
 31
0.0
  0
LINE
  5
F1
330
1F
100
AcDbEntity
  8
1
  6
DOT_CENTER
 62
     2
100
AcDbLine
 10
615.5306331103588
 20
1775.05729947516
 30
0.0
 11
615.5306331103588
 21
1699.87538396713
 31
0.0
  0
LWPOLYLINE
  5
F2
330
1F
100
AcDbEntity
  8
1
  6
DOT_CENTER
 62
     7
100
AcDbPolyline
 90
        2
 70
     0
 43
0.5
 10
444.0278510678517
 20
1833.922774678799
 10
444.0278510678517
 20
1787.890869283746
  0
LWPOLYLINE
  5
F3
330
1F
100
AcDbEntity
  8
Mittelpunktmarkierung_TC_020513_DIN_
  6
DOT_CENTER
 62
     7
100
AcDbPolyline
 90
        2
 70
     0
 43
0.5
 10
539.18226904728
 20
1915.971297327548
 10
539.18226904728
 20
1904.471297327548
  0
LWPOLYLINE
  5
F4
330
1F
100
AcDbEntity
  8
Mittelpunktmarkierung_TC_020513_DIN_
  6
DOT_CENTER
 62
     7
100
AcDbPolyline
 90
        2
 70
     0
 43
0.5
 10
544.93226904728
 20
1910.221297327548
 10
533.43226904728
 20
1910.221297327548
  0
LWPOLYLINE
  5
F5
330
1F
100
AcDbEntity
  8
Mittelpunktmarkierung_TC_020513_DIN_
  6
DOT_CENTER
 62
     7
100
AcDbPolyline
 90
        2
 70
     0
 43
0.5
 10
539.18226904728
 20
1883.971297327548
 10
539.18226904728
 20
1872.471297327548
  0
LWPOLYLINE
  5
F6
330
1F
100
AcDbEntity
  8
Mittelpunktmarkierung_TC_020513_DIN_
  6
DOT_CENTER
 62
     7
100
AcDbPolyline
 90
        2
 70
     0
 43
0.5
 10
544.93226904728
 20
1878.221297327548
 10
533.43226904728
 20
1878.221297327548
  0
LWPOLYLINE
  5
F7
330
1F
100
AcDbEntity
  8
Mittelpunktmarkierung_TC_020513_DIN_
  6
DOT_CENTER
 62
     7
100
AcDbPolyline
 90
        2
 70
     0
 43
0.5
 10
409.1778177193737
 20
1883.971297327548
 10
409.1778177193737
 20
1872.471297327548
  0
LWPOLYLINE
  5
F8
330
1F
100
AcDbEntity
  8
Mittelpunktmarkierung_TC_020513_DIN_
  6
DOT_CENTER
 62
     7
100
AcDbPolyline
 90
        2
 70
     0
 43
0.5
 10
414.9278177193737
 20
1878.221297327548
 10
403.4278177193737
 20
1878.221297327548
  0
LWPOLYLINE
  5
F9
330
1F
100
AcDbEntity
  8
Mittelpunktmarkierung_TC_020513_DIN_
  6
DOT_CENTER
 62
     7
100
AcDbPolyline
 90
        2
 70
     0
 43
0.5
 10
409.1778177193737
 20
1915.971297327548
 10
409.1778177193737
 20
1904.471297327548
  0
LWPOLYLINE
  5
FA
330
1F
100
AcDbEntity
  8
Mittelpunktmarkierung_TC_020513_DIN_
  6
DOT_CENTER
 62
     7
100
AcDbPolyline
 90
        2
 70
     0
 43
0.5
 10
414.9278177193737
 20
1910.221297327548
 10
403.4278177193737
 20
1910.221297327548
  0
LWPOLYLINE
  5
FB
330
1F
100
AcDbEntity
  8
Skizziergeometrie_TC_020513_DIN_
  6
Continuous
 62
     7
100
AcDbPolyline
 90
        2
 70
     0
 43
0.5
 10
416.6778177193737
 20
1875.721297327548
 10
416.6778177193737
 20
1912.721297327548
  0
LWPOLYLINE
  5
FC
330
1F
100
AcDbEntity
  8
Skizziergeometrie_TC_020513_DIN_
  6
Continuous
 62
     7
100
AcDbPolyline
 90
        2
 70
     0
 43
0.5
 10
531.68226904728
 20
1875.721297327548
 10
416.6778177193737
 20
1875.721297327548
  0
LWPOLYLINE
  5
FD
330
1F
100
AcDbEntity
  8
Skizziergeometrie_TC_020513_DIN_
  6
Continuous
 62
     7
100
AcDbPolyline
 90
        2
 70
     0
 43
0.5
 10
531.68226904728
 20
1912.721297327548
 10
531.68226904728
 20
1875.721297327548
  0
LWPOLYLINE
  5
FE
330
1F
100
AcDbEntity
  8
Skizziergeometrie_TC_020513_DIN_
  6
Continuous
 62
     7
100
AcDbPolyline
 90
        2
 70
     0
 43
0.5
 10
416.6778177193737
 20
1912.721297327548
 10
531.68226904728
 20
1912.721297327548
  0
LINE
  5
FF
330
1F
100
AcDbEntity
  8
0
  6
Continuous
 62
     7
100
AcDbLine
 10
548.0334074464057
 20
1765.662047190399
 30
0.0
 11
683.037858774312
 21
1765.662047190399
 31
0.0
  0
LWPOLYLINE
  5
100
330
1F
100
AcDbEntity
  8
Sichtbare_Kanten_TC_020513_DIN_
  6
Continuous
 62
     7
100
AcDbPolyline
 90
        2
 70
     0
 43
0.1
 10
540.7834074464063
 20
1795.772774678812
 10
690.2878587743122
 20
1795.772774678812
  0
LINE
  5
101
330
1F
100
AcDbEntity
  8
0
  6
Continuous
 62
     7
100
AcDbLine
 10
689.0378587743209
 20
1817.522774678799
 30
0.0
 11
689.0378587743209
 21
1820.222774678799
 31
0.0
  0
LINE
  5
102
330
1F
100
AcDbEntity
  8
1
  6
Continuous
 62
     7
100
AcDbLine
 10
540.7834074464062
 20
1819.567663832852
 30
0.0
 11
690.2878587743121
 21
1819.567663832852
 31
0.0
  0
LINE
  5
103
330
1F
100
AcDbEntity
  8
0
  6
Continuous
 62
     2
100
AcDbLine
 10
682.7878587743204
 20
1823.322774678799
 30
0.0
 11
682.7878587743204
 21
1825.822774678799
 31
0.0
  0
LINE
  5
104
330
1F
100
AcDbEntity
  8
0
  6
Continuous
 62
     2
100
AcDbLine
 10
548.2834074464141
 20
1825.822774678799
 30
0.0
 11
548.2834074464141
 21
1823.322774678799
 31
0.0
  0
LINE
  5
105
330
1F
100
AcDbEntity
  8
0
  6
Continuous
 62
     7
100
AcDbLine
 10
542.1834074464047
 20
1823.322774678799
 30
0.0
 11
542.1834074464074
 21
1825.822774678812
 31
0.0
  0
LINE
  5
106
330
1F
100
AcDbEntity
  8
0
  6
Continuous
 62
     7
100
AcDbLine
 10
548.2834074464141
 20
1825.822774678799
 30
0.0
 11
542.1834074464074
 21
1825.822774678812
 31
0.0
  0
LINE
  5
107
330
1F
100
AcDbEntity
  8
0
  6
Continuous
 62
     7
100
AcDbLine
 10
688.8878587743121
 20
1825.822774678799
 30
0.0
 11
688.8878587743121
 21
1823.322774678799
 31
0.0
  0
LINE
  5
108
330
1F
100
AcDbEntity
  8
0
  6
Continuous
 62
     7
100
AcDbLine
 10
689.0378587743209
 20
1817.522774678799
 30
0.0
 11
691.8734996841296
 21
1817.022774678799
 31
0.0
  0
LINE
  5
109
330
1F
100
AcDbEntity
  8
0
  6
Continuous
 62
     7
100
AcDbLine
 10
689.0378587743209
 20
1820.222774678799
 30
0.0
 11
689.0378587743209
 21
1822.222774678799
 31
0.0
  0
LINE
  5
10A
330
1F
100
AcDbEntity
  8
0
  6
Continuous
 62
     7
100
AcDbLine
 10
688.8878587743121
 20
1822.222774678799
 30
0.0
 11
689.0378587743209
 21
1822.222774678799
 31
0.0
  0
LINE
  5
10B
330
1F
100
AcDbEntity
  8
0
  6
Continuous
 62
     7
100
AcDbLine
 10
688.8878587743121
 20
1823.322774678799
 30
0.0
 11
688.8878587743121
 21
1822.222774678799
 31
0.0
  0
LINE
  5
10C
330
1F
100
AcDbEntity
  8
0
  6
Continuous
 62
     7
100
AcDbLine
 10
688.8878587743121
 20
1823.322774678799
 30
0.0
 11
682.7878587743204
 21
1823.322774678799
 31
0.0
  0
LINE
  5
10D
330
1F
100
AcDbEntity
  8
0
  6
Continuous
 62
     7
100
AcDbLine
 10
682.5378587743209
 20
1817.522774678799
 30
0.0
 11
689.0378587743209
 21
1817.522774678799
 31
0.0
  0
LINE
  5
10E
330
1F
100
AcDbEntity
  8
0
  6
Continuous
 62
     7
100
AcDbLine
 10
682.7878587743204
 20
1820.222774678799
 30
0.0
 11
689.0378587743209
 21
1820.222774678799
 31
0.0
  0
LINE
  5
10F
330
1F
100
AcDbEntity
  8
0
  6
Continuous
 62
     2
100
AcDbLine
 10
682.5378587743209
 20
1817.022774678799
 30
0.0
 11
682.5378587743209
 21
1817.522774678799
 31
0.0
  0
LINE
  5
110
330
1F
100
AcDbEntity
  8
0
  6
Continuous
 62
     2
100
AcDbLine
 10
682.5378587743209
 20
1817.522774678799
 30
0.0
 11
682.5378587743209
 21
1820.222774678799
 31
0.0
  0
LINE
  5
111
330
1F
100
AcDbEntity
  8
0
  6
Continuous
 62
     2
100
AcDbLine
 10
682.7878587743204
 20
1820.222774678799
 30
0.0
 11
682.7878587743204
 21
1823.322774678799
 31
0.0
  0
LINE
  5
112
330
1F
100
AcDbEntity
  8
0
  6
Continuous
 62
     7
100
AcDbLine
 10
548.2834074464141
 20
1825.822774678799
 30
0.0
 11
682.7878587743204
 21
1825.822774678799
 31
0.0
  0
LINE
  5
113
330
1F
100
AcDbEntity
  8
0
  6
Continuous
 62
     7
100
AcDbLine
 10
688.8878587743121
 20
1825.822774678799
 30
0.0
 11
682.7878587743204
 21
1825.822774678799
 31
0.0
  0
LINE
  5
114
330
1F
100
AcDbEntity
  8
0
  6
Continuous
 62
     7
100
AcDbLine
 10
542.0334074464078
 20
1817.522774678799
 30
0.0
 11
539.197766536605
 21
1817.022774678799
 31
0.0
  0
LINE
  5
115
330
1F
100
AcDbEntity
  8
0
  6
Continuous
 62
     7
100
AcDbLine
 10
542.0334074464078
 20
1817.522774678799
 30
0.0
 11
548.5334074464141
 21
1817.522774678799
 31
0.0
  0
LINE
  5
116
330
1F
100
AcDbEntity
  8
0
  6
Continuous
 62
     7
100
AcDbLine
 10
548.5334074464141
 20
1817.522774678799
 30
0.0
 11
682.5378587743209
 21
1817.522774678799
 31
0.0
  0
LINE
  5
117
330
1F
100
AcDbEntity
  8
0
  6
Continuous
 62
     2
100
AcDbLine
 10
548.5334074464141
 20
1817.522774678799
 30
0.0
 11
548.5334074464141
 21
1817.022774678799
 31
0.0
  0
LINE
  5
118
330
1F
100
AcDbEntity
  8
0
  6
Continuous
 62
     7
100
AcDbLine
 10
542.0334074464073
 20
1822.222774678799
 30
0.0
 11
542.1834074464047
 21
1822.222774678799
 31
0.0
  0
LINE
  5
119
330
1F
100
AcDbEntity
  8
0
  6
Continuous
 62
     7
100
AcDbLine
 10
542.0334074464078
 20
1817.522774678799
 30
0.0
 11
542.0334074464073
 21
1820.222774678799
 31
0.0
  0
LINE
  5
11A
330
1F
100
AcDbEntity
  8
0
  6
Continuous
 62
     7
100
AcDbLine
 10
542.0334074464073
 20
1820.222774678799
 30
0.0
 11
542.0334074464073
 21
1822.222774678799
 31
0.0
  0
LINE
  5
11B
330
1F
100
AcDbEntity
  8
0
  6
Continuous
 62
     7
100
AcDbLine
 10
548.5334074464141
 20
1820.222774678799
 30
0.0
 11
682.5378587743209
 21
1820.222774678799
 31
0.0
  0
LINE
  5
11C
330
1F
100
AcDbEntity
  8
0
  6
Continuous
 62
     7
100
AcDbLine
 10
542.0334074464073
 20
1820.222774678799
 30
0.0
 11
548.2834074464141
 21
1820.222774678799
 31
0.0
  0
LINE
  5
11D
330
1F
100
AcDbEntity
  8
0
  6
Continuous
 62
     7
100
AcDbLine
 10
548.2834074464141
 20
1820.222774678799
 30
0.0
 11
548.5334074464141
 21
1820.222774678799
 31
0.0
  0
LINE
  5
11E
330
1F
100
AcDbEntity
  8
0
  6
Continuous
 62
     7
100
AcDbLine
 10
682.5378587743209
 20
1820.222774678799
 30
0.0
 11
682.7878587743204
 21
1820.222774678799
 31
0.0
  0
LINE
  5
11F
330
1F
100
AcDbEntity
  8
0
  6
Continuous
 62
     2
100
AcDbLine
 10
548.5334074464141
 20
1817.522774678799
 30
0.0
 11
548.5334074464141
 21
1820.222774678799
 31
0.0
  0
LINE
  5
120
330
1F
100
AcDbEntity
  8
0
  6
Continuous
 62
     2
100
AcDbLine
 10
548.2834074464141
 20
1820.222774678799
 30
0.0
 11
548.2834074464141
 21
1823.322774678799
 31
0.0
  0
LINE
  5
121
330
1F
100
AcDbEntity
  8
0
  6
Continuous
 62
     7
100
AcDbLine
 10
542.1834074464047
 20
1823.322774678799
 30
0.0
 11
542.1834074464047
 21
1822.222774678799
 31
0.0
  0
LINE
  5
122
330
1F
100
AcDbEntity
  8
0
  6
Continuous
 62
     7
100
AcDbLine
 10
682.7878587743204
 20
1823.322774678799
 30
0.0
 11
548.2834074464141
 21
1823.322774678799
 31
0.0
  0
LINE
  5
123
330
1F
100
AcDbEntity
  8
0
  6
Continuous
 62
     7
100
AcDbLine
 10
548.2834074464141
 20
1823.322774678799
 30
0.0
 11
542.1834074464047
 21
1823.322774678799
 31
0.0
  0
LINE
  5
124
330
1F
100
AcDbEntity
  8
0
  6
Continuous
 62
     2
100
AcDbLine
 10
683.0379267170616
 20
1817.022774678812
 30
0.0
 11
683.0379267170616
 21
1797.022774678812
 31
0.0
  0
LINE
  5
125
330
1F
100
AcDbEntity
  8
1
  6
DOT_CENTER
 62
     2
100
AcDbLine
 10
615.5306331103591
 20
1825.817663832852
 30
0.0
 11
615.5306331103591
 21
1787.885758437798
 31
0.0
  0
LINE
  5
126
330
1F
100
AcDbEntity
  8
0
  6
Continuous
 62
     7
100
AcDbLine
 10
607.5306331103591
 20
1814.522774678812
 30
0.0
 11
534.2834074464059
 21
1814.522774678812
 31
0.0
  0
LINE
  5
127
330
1F
100
AcDbEntity
  8
0
  6
Continuous
 62
     7
100
AcDbLine
 10
693.034499966817
 20
1814.522774678812
 30
0.0
 11
623.5306331103591
 21
1814.522774678812
 31
0.0
  0
LINE
  5
128
330
1F
100
AcDbEntity
  8
0
  6
Continuous
 62
     2
100
AcDbLine
 10
693.034499966817
 20
1816.022774678812
 30
0.0
 11
526.2834074464059
 21
1816.022774678812
 31
0.0
  0
LINE
  5
129
330
1F
100
AcDbEntity
  8
0
  6
Continuous
 62
     7
100
AcDbLine
 10
692.0348426418419
 20
1817.022774678812
 30
0.0
 11
526.2834074464055
 21
1817.022774678812
 31
0.0
  0
LINE
  5
12A
330
1F
100
AcDbEntity
  8
0
  6
Continuous
 62
     2
100
AcDbLine
 10
704.7878587743122
 20
1816.022774678812
 30
0.0
 11
700.6067515031438
 21
1816.022774678812
 31
0.0
  0
LINE
  5
12B
330
1F
100
AcDbEntity
  8
0
  6
Continuous
 62
     2
100
AcDbLine
 10
700.6067515031438
 20
1816.022774678812
 30
0.0
 11
693.6091502283149
 21
1816.022774678812
 31
0.0
  0
LINE
  5
12C
330
1F
100
AcDbEntity
  8
0
  6
Continuous
 62
     2
100
AcDbLine
 10
700.6067515031438
 20
1798.972143100498
 30
0.0
 11
700.6067515031438
 21
1816.022774678812
 31
0.0
  0
LINE
  5
12D
330
1F
100
AcDbEntity
  8
0
  6
Continuous
 62
     7
100
AcDbLine
 10
699.1067515031438
 20
1814.522774678812
 30
0.0
 11
693.6091502283149
 21
1814.522774678812
 31
0.0
  0
LINE
  5
12E
330
1F
100
AcDbEntity
  8
0
  6
Continuous
 62
     7
100
AcDbLine
 10
699.1067515031438
 20
1814.522774678812
 30
0.0
 11
699.1067515031438
 21
1814.363864147173
 31
0.0
  0
LINE
  5
12F
330
1F
100
AcDbEntity
  8
0
  6
Continuous
 62
     7
100
AcDbLine
 10
699.1067515031438
 20
1802.00547578528
 30
0.0
 11
693.6091502283149
 21
1802.00547578528
 31
0.0
  0
LINE
  5
130
330
1F
100
AcDbEntity
  8
0
  6
Continuous
 62
     7
100
AcDbLine
 10
696.842344392746
 20
1804.522774678812
 30
0.0
 11
696.842344392746
 21
1804.527885524771
 31
0.0
  0
LINE
  5
131
330
1F
100
AcDbEntity
  8
0
  6
Continuous
 62
     2
100
AcDbLine
 10
700.5378587743122
 20
1798.022774678812
 30
0.0
 11
693.6091502283149
 21
1798.022774678812
 31
0.0
  0
LINE
  5
132
330
1F
100
AcDbEntity
  8
0
  6
Continuous
 62
     7
100
AcDbLine
 10
693.034499966817
 20
1802.00547578528
 30
0.0
 11
693.6091502283149
 21
1802.00547578528
 31
0.0
  0
LINE
  5
133
330
1F
100
AcDbEntity
  8
0
  6
Continuous
 62
     2
100
AcDbLine
 10
693.6091502283149
 20
1798.022774678812
 30
0.0
 11
693.034499966817
 21
1798.022774678812
 31
0.0
  0
LINE
  5
134
330
1F
100
AcDbEntity
  8
0
  6
Continuous
 62
     7
100
AcDbLine
 10
693.034499966817
 20
1802.00547578528
 30
0.0
 11
693.034499966817
 21
1798.022774678812
 31
0.0
  0
LINE
  5
135
330
1F
100
AcDbEntity
  8
0
  6
Continuous
 62
     7
100
AcDbLine
 10
690.0355279918905
 20
1804.522774678812
 30
0.0
 11
690.6101782533884
 21
1804.522774678812
 31
0.0
  0
LINE
  5
136
330
1F
100
AcDbEntity
  8
0
  6
Continuous
 62
     7
100
AcDbLine
 10
625.6109890572436
 20
1811.522774678812
 30
0.0
 11
690.0355279918905
 21
1811.522774678812
 31
0.0
  0
LINE
  5
137
330
1F
100
AcDbEntity
  8
0
  6
Continuous
 62
     7
100
AcDbLine
 10
690.0355279918905
 20
1811.522774678812
 30
0.0
 11
690.0355279918905
 21
1804.522774678812
 31
0.0
  0
LINE
  5
138
330
1F
100
AcDbEntity
  8
0
  6
Continuous
 62
     7
100
AcDbLine
 10
690.6101782533884
 20
1811.522774678812
 30
0.0
 11
690.6101782533884
 21
1804.522774678812
 31
0.0
  0
LINE
  5
139
330
1F
100
AcDbEntity
  8
0
  6
Continuous
 62
     7
100
AcDbLine
 10
690.0355279918905
 20
1811.522774678812
 30
0.0
 11
690.6101782533884
 21
1811.522774678812
 31
0.0
  0
LINE
  5
13A
330
1F
100
AcDbEntity
  8
0
  6
Continuous
 62
     7
100
AcDbLine
 10
611.2318908850309
 20
1802.00547578528
 30
0.0
 11
693.034499966817
 21
1802.00547578528
 31
0.0
  0
LINE
  5
13B
330
1F
100
AcDbEntity
  8
0
  6
Continuous
 62
     2
100
AcDbLine
 10
693.034499966817
 20
1798.022774678812
 30
0.0
 11
530.5334074464055
 21
1798.022774678812
 31
0.0
  0
LINE
  5
13C
330
1F
100
AcDbEntity
  8
0
  6
Continuous
 62
     7
100
AcDbLine
 10
618.788481482504
 20
1804.522774678812
 30
0.0
 11
690.0355279918905
 21
1804.522774678812
 31
0.0
  0
LINE
  5
13D
330
1F
100
AcDbEntity
  8
0
  6
Continuous
 62
     7
100
AcDbLine
 10
693.6091502283149
 20
1798.022774678812
 30
0.0
 11
693.6091502283149
 21
1802.00547578528
 31
0.0
  0
LINE
  5
13E
330
1F
100
AcDbEntity
  8
0
  6
Continuous
 62
     7
100
AcDbLine
 10
693.034499966817
 20
1802.00547578528
 30
0.0
 11
690.0355279918905
 21
1804.522774678812
 31
0.0
  0
LINE
  5
13F
330
1F
100
AcDbEntity
  8
0
  6
Continuous
 62
     7
100
AcDbLine
 10
690.0355279918905
 20
1811.522774678812
 30
0.0
 11
693.034499966817
 21
1814.522774678812
 31
0.0
  0
LINE
  5
140
330
1F
100
AcDbEntity
  8
0
  6
Continuous
 62
     7
100
AcDbLine
 10
690.6101782533884
 20
1811.522774678812
 30
0.0
 11
693.6091502283149
 21
1814.522774678812
 31
0.0
  0
LINE
  5
141
330
1F
100
AcDbEntity
  8
0
  6
Continuous
 62
     7
100
AcDbLine
 10
693.6091502283149
 20
1814.522774678812
 30
0.0
 11
693.034499966817
 21
1814.522774678812
 31
0.0
  0
LINE
  5
142
330
1F
100
AcDbEntity
  8
0
  6
Continuous
 62
     7
100
AcDbLine
 10
693.6091502283149
 20
1802.00547578528
 30
0.0
 11
690.6101782533884
 21
1804.522774678812
 31
0.0
  0
LINE
  5
143
330
1F
100
AcDbEntity
  8
0
  6
Continuous
 62
     7
100
AcDbLine
 10
693.6091502283149
 20
1814.522774678812
 30
0.0
 11
693.6091502283149
 21
1816.022774678812
 31
0.0
  0
LINE
  5
144
330
1F
100
AcDbEntity
  8
0
  6
Continuous
 62
     7
100
AcDbLine
 10
693.034499966817
 20
1816.022774678812
 30
0.0
 11
693.034499966817
 21
1814.522774678812
 31
0.0
  0
LINE
  5
145
330
1F
100
AcDbEntity
  8
0
  6
Continuous
 62
     2
100
AcDbLine
 10
693.6091502283149
 20
1816.022774678812
 30
0.0
 11
693.034499966817
 21
1816.022774678812
 31
0.0
  0
LINE
  5
146
330
1F
100
AcDbEntity
  8
0
  6
Continuous
 62
     7
100
AcDbLine
 10
700.5378587743122
 20
1798.022774678812
 30
0.0
 11
700.5378587743122
 21
1798.522774678812
 31
0.0
  0
LINE
  5
147
330
1F
100
AcDbEntity
  8
0
  6
Continuous
 62
     7
100
AcDbLine
 10
696.842344392746
 20
1804.522774678812
 30
0.0
 11
690.6101782533884
 21
1804.522774678812
 31
0.0
  0
LINE
  5
148
330
1F
100
AcDbEntity
  8
0
  6
Continuous
 62
     7
100
AcDbLine
 10
696.8423443927464
 20
1811.522774678812
 30
0.0
 11
690.6101782533884
 21
1811.522774678812
 31
0.0
  0
LINE
  5
149
330
1F
100
AcDbEntity
  8
0
  6
Continuous
 62
     2
100
AcDbLine
 10
703.5378587743122
 20
1798.022774678812
 30
0.0
 11
704.7878587743122
 21
1798.022774678812
 31
0.0
  0
LINE
  5
14A
330
1F
100
AcDbEntity
  8
0
  6
Continuous
 62
     7
100
AcDbLine
 10
703.5378587743122
 20
1798.022774678812
 30
0.0
 11
703.5378587743122
 21
1798.522774678812
 31
0.0
  0
LWPOLYLINE
  5
14B
330
1F
100
AcDbEntity
  8
0
  6
Continuous
 62
     7
100
AcDbPolyline
 90
        2
 70
     0
 43
0.1
 10
692.0348426418415
 20
1797.022774678812
 10
615.5306331103591
 20
1797.022774678812
  0
LINE
  5
14C
330
1F
100
AcDbEntity
  8
0
  6
Continuous
 62
     7
100
AcDbLine
 10
692.609492903339
 20
1797.022774678812
 30
0.0
 11
692.0348426418415
 21
1797.022774678812
 31
0.0
  0
LINE
  5
14D
330
1F
100
AcDbEntity
  8
0
  6
Continuous
 62
     7
100
AcDbLine
 10
700.5378587743122
 20
1797.022774678812
 30
0.0
 11
692.609492903339
 21
1797.022774678812
 31
0.0
  0
LINE
  5
14E
330
1F
100
AcDbEntity
  8
0
  6
Continuous
 62
     7
100
AcDbLine
 10
700.5378587743122
 20
1798.022774678812
 30
0.0
 11
700.5378587743122
 21
1797.022774678812
 31
0.0
  0
LINE
  5
14F
330
1F
100
AcDbEntity
  8
0
  6
Continuous
 62
     7
100
AcDbLine
 10
703.5378587743122
 20
1797.022774678812
 30
0.0
 11
704.7878587743122
 21
1797.022774678812
 31
0.0
  0
LINE
  5
150
330
1F
100
AcDbEntity
  8
0
  6
Continuous
 62
     7
100
AcDbLine
 10
703.5378587743122
 20
1798.022774678812
 30
0.0
 11
703.5378587743122
 21
1797.022774678812
 31
0.0
  0
LINE
  5
151
330
1F
100
AcDbEntity
  8
0
  6
Continuous
 62
     2
100
AcDbLine
 10
704.7878587743122
 20
1798.022774678812
 30
0.0
 11
704.7878587743122
 21
1816.022774678812
 31
0.0
  0
LINE
  5
152
330
1F
100
AcDbEntity
  8
0
  6
Continuous
 62
     2
100
AcDbLine
 10
704.7878587743122
 20
1816.022774678812
 30
0.0
 11
711.7878587743122
 21
1816.022774678812
 31
0.0
  0
LINE
  5
153
330
1F
100
AcDbEntity
  8
0
  6
Continuous
 62
     2
100
AcDbLine
 10
704.7878587743122
 20
1798.022774678812
 30
0.0
 11
711.7878587743122
 21
1798.022774678812
 31
0.0
  0
LINE
  5
154
330
1F
100
AcDbEntity
  8
0
  6
Continuous
 62
     7
100
AcDbLine
 10
711.7878587743122
 20
1798.022774678812
 30
0.0
 11
711.7878587743122
 21
1816.022774678812
 31
0.0
  0
LINE
  5
155
330
1F
100
AcDbEntity
  8
0
  6
Continuous
 62
     7
100
AcDbLine
 10
692.609492903339
 20
1817.022774678812
 30
0.0
 11
692.0348426418419
 21
1817.022774678812
 31
0.0
  0
LINE
  5
156
330
1F
100
AcDbEntity
  8
0
  6
Continuous
 62
     7
100
AcDbLine
 10
700.6067515031438
 20
1817.022774678812
 30
0.0
 11
692.609492903339
 21
1817.022774678812
 31
0.0
  0
LINE
  5
157
330
1F
100
AcDbEntity
  8
0
  6
Continuous
 62
     2
100
AcDbLine
 10
700.6067515031438
 20
1816.022774678812
 30
0.0
 11
700.6067515031438
 21
1817.022774678812
 31
0.0
  0
LINE
  5
158
330
1F
100
AcDbEntity
  8
0
  6
Continuous
 62
     7
100
AcDbLine
 10
704.7878587743122
 20
1817.022774678812
 30
0.0
 11
700.6067515031438
 21
1817.022774678812
 31
0.0
  0
LINE
  5
159
330
1F
100
AcDbEntity
  8
0
  6
Continuous
 62
     7
100
AcDbLine
 10
704.7878587743122
 20
1817.022774678812
 30
0.0
 11
710.7878587743122
 21
1817.022774678812
 31
0.0
  0
LINE
  5
15A
330
1F
100
AcDbEntity
  8
0
  6
Continuous
 62
     2
100
AcDbLine
 10
704.7878587743122
 20
1817.022774678812
 30
0.0
 11
704.7878587743122
 21
1816.022774678812
 31
0.0
  0
LINE
  5
15B
330
1F
100
AcDbEntity
  8
0
  6
Continuous
 62
     7
100
AcDbLine
 10
527.5334074464055
 20
1798.522774678812
 30
0.0
 11
527.5334074464055
 21
1798.022774678812
 31
0.0
  0
LINE
  5
15C
330
1F
100
AcDbEntity
  8
0
  6
Continuous
 62
     2
100
AcDbLine
 10
526.2834074464055
 20
1798.022774678812
 30
0.0
 11
527.5334074464055
 21
1798.022774678812
 31
0.0
  0
LINE
  5
15D
330
1F
100
AcDbEntity
  8
0
  6
Continuous
 62
     2
100
AcDbLine
 10
526.2834074464055
 20
1798.022774678812
 30
0.0
 11
519.2834074464059
 21
1798.022774678812
 31
0.0
  0
LINE
  5
15E
330
1F
100
AcDbEntity
  8
0
  6
Continuous
 62
     7
100
AcDbLine
 10
530.5334074464055
 20
1798.022774678812
 30
0.0
 11
530.5334074464055
 21
1798.522774678812
 31
0.0
  0
LINE
  5
15F
330
1F
100
AcDbEntity
  8
0
  6
Continuous
 62
     7
100
AcDbLine
 10
519.2834074464059
 20
1816.022774678812
 30
0.0
 11
519.2834074464059
 21
1798.022774678812
 31
0.0
  0
LINE
  5
160
330
1F
100
AcDbEntity
  8
0
  6
Continuous
 62
     2
100
AcDbLine
 10
526.2834074464059
 20
1816.022774678812
 30
0.0
 11
526.2834074464055
 21
1798.022774678812
 31
0.0
  0
LINE
  5
161
330
1F
100
AcDbEntity
  8
0
  6
Continuous
 62
     7
100
AcDbLine
 10
534.2834074464055
 20
1802.00547578528
 30
0.0
 11
537.2834074464058
 21
1804.522774678812
 31
0.0
  0
LINE
  5
162
330
1F
100
AcDbEntity
  8
0
  6
Continuous
 62
     2
100
AcDbLine
 10
526.2834074464059
 20
1816.022774678812
 30
0.0
 11
519.2834074464059
 21
1816.022774678812
 31
0.0
  0
LINE
  5
163
330
1F
100
AcDbEntity
  8
0
  6
Continuous
 62
     7
100
AcDbLine
 10
537.2834074464059
 20
1811.522774678812
 30
0.0
 11
537.2834074464058
 21
1804.522774678812
 31
0.0
  0
LINE
  5
164
330
1F
100
AcDbEntity
  8
0
  6
Continuous
 62
     7
100
AcDbLine
 10
605.450277163475
 20
1811.522774678812
 30
0.0
 11
537.2834074464059
 21
1811.522774678812
 31
0.0
  0
LINE
  5
165
330
1F
100
AcDbEntity
  8
0
  6
Continuous
 62
     7
100
AcDbLine
 10
612.2727847382146
 20
1804.522774678812
 30
0.0
 11
537.2834074464058
 21
1804.522774678812
 31
0.0
  0
LINE
  5
166
330
1F
100
AcDbEntity
  8
0
  6
Continuous
 62
     7
100
AcDbLine
 10
534.2834074464055
 20
1802.00547578528
 30
0.0
 11
611.2318908850309
 21
1802.005475785263
 31
0.0
  0
LINE
  5
167
330
1F
100
AcDbEntity
  8
0
  6
Continuous
 62
     7
100
AcDbLine
 10
534.2834074464055
 20
1802.00547578528
 30
0.0
 11
534.2834074464059
 21
1814.522774678812
 31
0.0
  0
LINE
  5
168
330
1F
100
AcDbEntity
  8
0
  6
Continuous
 62
     7
100
AcDbLine
 10
534.2834074464059
 20
1814.522774678812
 30
0.0
 11
537.2834074464059
 21
1811.522774678812
 31
0.0
  0
LINE
  5
169
330
1F
100
AcDbEntity
  8
0
  6
Continuous
 62
     7
100
AcDbLine
 10
526.2834074464055
 20
1817.022774678812
 30
0.0
 11
520.2834074464059
 21
1817.022774678812
 31
0.0
  0
LINE
  5
16A
330
1F
100
AcDbEntity
  8
0
  6
Continuous
 62
     2
100
AcDbLine
 10
526.2834074464059
 20
1816.022774678812
 30
0.0
 11
526.2834074464055
 21
1817.022774678812
 31
0.0
  0
LINE
  5
16B
330
1F
100
AcDbEntity
  8
0
  6
Continuous
 62
     7
100
AcDbLine
 10
526.2834074464055
 20
1797.022774678812
 30
0.0
 11
520.2834074464059
 21
1797.022774678812
 31
0.0
  0
LINE
  5
16C
330
1F
100
AcDbEntity
  8
0
  6
Continuous
 62
     7
100
AcDbLine
 10
530.5334074464055
 20
1798.022774678812
 30
0.0
 11
530.5334074464055
 21
1797.022774678812
 31
0.0
  0
LINE
  5
16D
330
1F
100
AcDbEntity
  8
0
  6
Continuous
 62
     7
100
AcDbLine
 10
526.2834074464055
 20
1797.022774678812
 30
0.0
 11
527.5334074464055
 21
1797.022774678812
 31
0.0
  0
LINE
  5
16E
330
1F
100
AcDbEntity
  8
0
  6
Continuous
 62
     2
100
AcDbLine
 10
526.2834074464055
 20
1797.022774678812
 30
0.0
 11
526.2834074464055
 21
1798.022774678812
 31
0.0
  0
LINE
  5
16F
330
1F
100
AcDbEntity
  8
0
  6
Continuous
 62
     7
100
AcDbLine
 10
527.5334074464055
 20
1798.022774678812
 30
0.0
 11
527.5334074464055
 21
1797.022774678812
 31
0.0
  0
LINE
  5
170
330
1F
100
AcDbEntity
  8
0
  6
Continuous
 62
     2
100
AcDbLine
 10
704.7878587743122
 20
1798.022774678812
 30
0.0
 11
704.7878587743122
 21
1797.022774678812
 31
0.0
  0
LINE
  5
171
330
1F
100
AcDbEntity
  8
0
  6
Continuous
 62
     7
100
AcDbLine
 10
704.7878587743122
 20
1797.022774678812
 30
0.0
 11
710.7878587743122
 21
1797.022774678812
 31
0.0
  0
LINE
  5
172
330
1F
100
AcDbEntity
  8
1
  6
DOT_CENTER
 62
     2
100
AcDbLine
 10
615.5306331103591
 20
1831.685758437798
 30
0.0
 11
615.5306331103591
 21
1825.817663832852
 31
0.0
  0
LINE
  5
173
330
1F
100
AcDbEntity
  8
0
  6
Continuous
 62
     7
100
AcDbLine
 10
615.5306331103591
 20
1797.022774678812
 30
0.0
 11
530.5334074464055
 21
1797.022774678812
 31
0.0
  0
LINE
  5
174
330
1F
100
AcDbEntity
  8
1
  6
DOT_CENTER
 62
     2
100
AcDbLine
 10
657.5378587743122
 20
1806.210469984391
 30
0.0
 11
657.5378587743122
 21
1806.110469984391
 31
0.0
  0
LINE
  5
175
330
1F
100
AcDbEntity
  8
0
  6
Continuous
 62
     7
100
AcDbLine
 10
699.1067515031438
 20
1814.363864147173
 30
0.0
 11
699.1067515031438
 21
1802.138817553768
 31
0.0
  0
LINE
  5
176
330
1F
100
AcDbEntity
  8
1
  6
Continuous
 62
     7
100
AcDbLine
 10
696.842344392746
 20
1804.527885524771
 30
0.0
 11
699.1067515031438
 21
1802.138817553768
 31
0.0
  0
LINE
  5
177
330
1F
100
AcDbEntity
  8
0
  6
Continuous
 62
     7
100
AcDbLine
 10
696.842344392746
 20
1804.527885524771
 30
0.0
 11
696.8423443927464
 21
1811.522774678812
 31
0.0
  0
LINE
  5
178
330
1F
100
AcDbEntity
  8
0
  6
Continuous
 62
     7
100
AcDbLine
 10
699.1067515031438
 20
1802.138817553768
 30
0.0
 11
699.1067515031438
 21
1802.00547578528
 31
0.0
  0
LWPOLYLINE
  5
179
330
1F
100
AcDbEntity
  8
Sichtbare_Kanten_TC_020513_DIN_
  6
Continuous
 62
     7
100
AcDbPolyline
 90
        2
 70
     0
 43
0.5
 10
473.0278510678467
 20
1796.822774678799
 10
473.0278510678467
 20
1816.822774678799
  0
LWPOLYLINE
  5
17A
330
1F
100
AcDbEntity
  8
Sichtbare_Kanten_TC_020513_DIN_
  6
Continuous
 62
     7
100
AcDbPolyline
 90
        2
 70
     0
 43
0.5
 10
427.0278510678507
 20
1796.822774678799
 10
445.0278510678508
 20
1796.822774678799
  0
LWPOLYLINE
  5
17B
330
1F
100
AcDbEntity
  8
Sichtbare_Kanten_TC_020513_DIN_
  6
Continuous
 62
     7
100
AcDbPolyline
 90
        2
 70
     0
 43
0.5
 10
415.0278510678547
 20
1802.922774678799
 10
415.0278510678547
 20
1796.822774678799
  0
LWPOLYLINE
  5
17C
330
1F
100
AcDbEntity
  8
Sichtbare_Kanten_TC_020513_DIN_
  6
Continuous
 62
     7
100
AcDbPolyline
 90
        2
 70
     0
 43
0.5
 10
427.0278510678507
 20
1796.822774678799
 10
415.0278510678547
 20
1796.822774678799
  0
LWPOLYLINE
  5
17D
330
1F
100
AcDbEntity
  8
Sichtbare_Kanten_TC_020513_DIN_
  6
Continuous
 62
     7
100
AcDbPolyline
 90
        2
 70
     0
 43
0.5
 10
415.0278510678547
 20
1816.822774678799
 10
415.0278510678547
 20
1814.722774678799
  0
LWPOLYLINE
  5
17E
330
1F
100
AcDbEntity
  8
Sichtbare_Kanten_TC_020513_DIN_
  6
Continuous
 62
     7
100
AcDbPolyline
 90
        2
 70
     0
 43
0.5
 10
415.0278510678547
 20
1816.822774678799
 10
427.0278510678507
 20
1816.822774678799
  0
LWPOLYLINE
  5
17F
330
1F
100
AcDbEntity
  8
Sichtbare_Kanten_TC_020513_DIN_
  6
Continuous
 62
     7
100
AcDbPolyline
 90
        2
 70
     0
 43
0.5
 10
445.0278510678508
 20
1816.822774678799
 10
427.0278510678507
 20
1816.822774678799
  0
LWPOLYLINE
  5
180
330
1F
100
AcDbEntity
  8
Sichtbare_Kanten_TC_020513_DIN_
  6
Continuous
 62
     7
100
AcDbPolyline
 90
        2
 70
     0
 43
0.5
 10
453.0278510678487
 20
1796.822774678799
 10
453.0122107791847
 20
1796.822774678799
  0
LWPOLYLINE
  5
181
330
1F
100
AcDbEntity
  8
Sichtbare_Kanten_TC_020513_DIN_
  6
Continuous
 62
     7
100
AcDbPolyline
 90
        2
 70
     0
 43
0.5
 10
445.0278510678508
 20
1796.822774678799
 10
453.0122107791847
 20
1796.822774678799
  0
LWPOLYLINE
  5
182
330
1F
100
AcDbEntity
  8
Sichtbare_Kanten_TC_020513_DIN_
  6
Continuous
 62
     7
100
AcDbPolyline
 90
        2
 70
     0
 43
0.5
 10
453.0122107791847
 20
1796.822774678799
 10
453.0122107791847
 20
1799.822774678799
  0
LWPOLYLINE
  5
183
330
1F
100
AcDbEntity
  8
Sichtbare_Kanten_TC_020513_DIN_
  6
Continuous
 62
     7
100
AcDbPolyline
 90
        2
 70
     0
 43
0.5
 10
453.0122107791847
 20
1799.822774678799
 10
453.0278510678487
 20
1799.822774678799
  0
LWPOLYLINE
  5
184
330
1F
100
AcDbEntity
  8
Sichtbare_Kanten_TC_020513_DIN_
  6
Continuous
 62
     7
100
AcDbPolyline
 90
        2
 70
     0
 43
0.5
 10
473.0278510678467
 20
1796.822774678799
 10
468.0278510678458
 20
1796.822774678799
  0
LWPOLYLINE
  5
185
330
1F
100
AcDbEntity
  8
Sichtbare_Kanten_TC_020513_DIN_
  6
Continuous
 62
     7
100
AcDbPolyline
 90
        2
 70
     0
 43
0.5
 10
458.0278510678458
 20
1796.822774678799
 10
468.0278510678458
 20
1796.822774678799
  0
LWPOLYLINE
  5
186
330
1F
100
AcDbEntity
  8
Sichtbare_Kanten_TC_020513_DIN_
  6
Continuous
 62
     7
100
AcDbPolyline
 90
        2
 70
     0
 43
0.5
 10
458.0278510678458
 20
1796.822774678799
 10
453.0278510678487
 20
1796.822774678799
  0
LWPOLYLINE
  5
187
330
1F
100
AcDbEntity
  8
Sichtbare_Kanten_TC_020513_DIN_
  6
Continuous
 62
     7
100
AcDbPolyline
 90
        2
 70
     0
 43
0.5
 10
419.5278510678547
 20
1816.822774678799
 10
419.5278510678547
 20
1817.072774678799
  0
LWPOLYLINE
  5
188
330
1F
100
AcDbEntity
  8
Sichtbare_Kanten_TC_020513_DIN_
  6
Continuous
 62
     7
100
AcDbPolyline
 90
        2
 70
     0
 43
0.5
 10
419.5278510678547
 20
1819.572774678799
 10
419.5278510678547
 20
1819.822774678799
  0
LWPOLYLINE
  5
189
330
1F
100
AcDbEntity
  8
Sichtbare_Kanten_TC_020513_DIN_
  6
Continuous
 62
     7
100
AcDbPolyline
 90
        2
 70
     0
 43
0.5
 10
468.5278510678547
 20
1819.572774678799
 10
468.5278510678547
 20
1819.822774678799
  0
LWPOLYLINE
  5
18A
330
1F
100
AcDbEntity
  8
Sichtbare_Kanten_TC_020513_DIN_
  6
Continuous
 62
     7
100
AcDbPolyline
 90
        2
 70
     0
 43
0.5
 10
418.0278510678547
 20
1819.822774678799
 10
418.0278510678547
 20
1823.822774678799
  0
LWPOLYLINE
  5
18B
330
1F
100
AcDbEntity
  8
Sichtbare_Kanten_TC_020513_DIN_
  6
Continuous
 62
     7
100
AcDbPolyline
 90
        2
 70
     0
 43
0.5
 10
426.5278510678517
 20
1819.822774678799
 10
418.0278510678547
 20
1819.822774678799
  0
LWPOLYLINE
  5
18C
330
1F
100
AcDbEntity
  8
Sichtbare_Kanten_TC_020513_DIN_
  6
Continuous
 62
     7
100
AcDbPolyline
 90
        2
 70
     0
 43
0.5
 10
418.0278510678547
 20
1823.822774678799
 10
426.5278510678517
 20
1823.822774678799
  0
LWPOLYLINE
  5
18D
330
1F
100
AcDbEntity
  8
Sichtbare_Kanten_TC_020513_DIN_
  6
Continuous
 62
     7
100
AcDbPolyline
 90
        2
 70
     0
 43
0.5
 10
418.0278510678547
 20
1823.822774678799
 10
418.5637494527167
 20
1825.822774678799
  0
LWPOLYLINE
  5
18E
330
1F
100
AcDbEntity
  8
Sichtbare_Kanten_TC_020513_DIN_
  6
Continuous
 62
     7
100
AcDbPolyline
 90
        2
 70
     0
 43
0.5
 10
426.5278510678517
 20
1825.822774678799
 10
418.5637494527167
 20
1825.822774678799
  0
LWPOLYLINE
  5
18F
330
1F
100
AcDbEntity
  8
Sichtbare_Kanten_TC_020513_DIN_
  6
Continuous
 62
     7
100
AcDbPolyline
 90
        2
 70
     0
 43
0.5
 10
461.5278510678517
 20
1823.822774678799
 10
426.5278510678517
 20
1823.822774678799
  0
LWPOLYLINE
  5
190
330
1F
100
AcDbEntity
  8
Sichtbare_Kanten_TC_020513_DIN_
  6
Continuous
 62
     7
100
AcDbPolyline
 90
        2
 70
     0
 43
0.5
 10
426.5278510678517
 20
1825.822774678799
 10
461.5278510678517
 20
1825.822774678799
  0
LWPOLYLINE
  5
191
330
1F
100
AcDbEntity
  8
Sichtbare_Kanten_TC_020513_DIN_
  6
Continuous
 62
     7
100
AcDbPolyline
 90
        2
 70
     0
 43
0.5
 10
426.5278510678517
 20
1819.822774678799
 10
461.5278510678517
 20
1819.822774678799
  0
LWPOLYLINE
  5
192
330
1F
100
AcDbEntity
  8
Sichtbare_Kanten_TC_020513_DIN_
  6
Continuous
 62
     7
100
AcDbPolyline
 90
        2
 70
     0
 43
0.5
 10
470.0278510678547
 20
1819.822774678799
 10
461.5278510678517
 20
1819.822774678799
  0
LWPOLYLINE
  5
193
330
1F
100
AcDbEntity
  8
Sichtbare_Kanten_TC_020513_DIN_
  6
Continuous
 62
     7
100
AcDbPolyline
 90
        2
 70
     0
 43
0.5
 10
470.0278510678547
 20
1819.822774678799
 10
470.0278510678547
 20
1823.822774678799
  0
LWPOLYLINE
  5
194
330
1F
100
AcDbEntity
  8
Sichtbare_Kanten_TC_020513_DIN_
  6
Continuous
 62
     7
100
AcDbPolyline
 90
        2
 70
     0
 43
0.5
 10
461.5278510678517
 20
1823.822774678799
 10
470.0278510678547
 20
1823.822774678799
  0
LWPOLYLINE
  5
195
330
1F
100
AcDbEntity
  8
Sichtbare_Kanten_TC_020513_DIN_
  6
Continuous
 62
     7
100
AcDbPolyline
 90
        2
 70
     0
 43
0.5
 10
470.0278510678547
 20
1823.822774678799
 10
469.4919526829917
 20
1825.822774678799
  0
LWPOLYLINE
  5
196
330
1F
100
AcDbEntity
  8
Sichtbare_Kanten_TC_020513_DIN_
  6
Continuous
 62
     7
100
AcDbPolyline
 90
        2
 70
     0
 43
0.5
 10
469.4919526829917
 20
1825.822774678799
 10
461.5278510678517
 20
1825.822774678799
  0
LWPOLYLINE
  5
197
330
1F
100
AcDbEntity
  8
Sichtbare_Kanten_TC_020513_DIN_
  6
Continuous
 62
     7
100
AcDbPolyline
 90
        2
 70
     0
 43
0.5
 10
468.5278510678547
 20
1816.822774678799
 10
468.5278510678547
 20
1817.072774678799
  0
LWPOLYLINE
  5
198
330
1F
100
AcDbEntity
  8
Sichtbare_Kanten_TC_020513_DIN_
  6
Continuous
 62
     7
100
AcDbPolyline
 90
        2
 70
     0
 43
0.5
 10
468.0278510678458
 20
1816.822774678799
 10
473.0278510678467
 20
1816.822774678799
  0
LWPOLYLINE
  5
199
330
1F
100
AcDbEntity
  8
Sichtbare_Kanten_TC_020513_DIN_
  6
Continuous
 62
     7
100
AcDbPolyline
 90
        2
 70
     0
 43
0.5
 10
468.0278510678458
 20
1816.822774678799
 10
458.0278510678458
 20
1816.822774678799
  0
LWPOLYLINE
  5
19A
330
1F
100
AcDbEntity
  8
Sichtbare_Kanten_TC_020513_DIN_
  6
Continuous
 62
     7
100
AcDbPolyline
 90
        2
 70
     0
 43
0.5
 10
453.0278510678467
 20
1816.822774678799
 10
458.0278510678458
 20
1816.822774678799
  0
LWPOLYLINE
  5
19B
330
1F
100
AcDbEntity
  8
Sichtbare_Kanten_TC_020513_DIN_
  6
Continuous
 62
     7
100
AcDbPolyline
 90
        2
 70
     0
 43
0.5
 10
453.0278510678467
 20
1816.822774678799
 10
453.0278510678487
 20
1796.822774678799
  0
LWPOLYLINE
  5
19C
330
1F
100
AcDbEntity
  8
Sichtbare_Kanten_TC_020513_DIN_
  6
Continuous
 62
     7
100
AcDbPolyline
 90
        2
 70
     0
 43
0.5
 10
453.0278510678467
 20
1816.822774678799
 10
445.0278510678508
 20
1816.822774678799
  0
LWPOLYLINE
  5
19D
330
1F
100
AcDbEntity
  8
Sichtbare_Kanten_TC_020513_DIN_
  6
Continuous
 62
     7
100
AcDbPolyline
 90
        2
 70
     0
 43
0.5
 10
418.5278510678547
 20
1817.072774678799
 10
426.7778510678517
 20
1817.072774678799
  0
LWPOLYLINE
  5
19E
330
1F
100
AcDbEntity
  8
Sichtbare_Kanten_TC_020513_DIN_
  6
Continuous
 62
     7
100
AcDbPolyline
 90
        2
 70
     0
 43
0.5
 10
426.7778510678517
 20
1819.572774678799
 10
418.5278510678547
 20
1819.572774678799
  0
LWPOLYLINE
  5
19F
330
1F
100
AcDbEntity
  8
Sichtbare_Kanten_TC_020513_DIN_
  6
Continuous
 62
     7
100
AcDbPolyline
 90
        2
 70
     0
 43
0.5
 10
461.2778510678517
 20
1817.072774678799
 10
426.7778510678517
 20
1817.072774678799
  0
LWPOLYLINE
  5
1A0
330
1F
100
AcDbEntity
  8
Sichtbare_Kanten_TC_020513_DIN_
  6
Continuous
 62
     7
100
AcDbPolyline
 90
        2
 70
     0
 43
0.5
 10
461.2778510678517
 20
1819.572774678799
 10
426.7778510678517
 20
1819.572774678799
  0
LWPOLYLINE
  5
1A1
330
1F
100
AcDbEntity
  8
Sichtbare_Kanten_TC_020513_DIN_
  6
Continuous
 62
     7
100
AcDbPolyline
 90
        2
 70
     0
 43
0.5
 10
461.2778510678517
 20
1817.072774678799
 10
469.5278510678547
 20
1817.072774678799
  0
LWPOLYLINE
  5
1A2
330
1F
100
AcDbEntity
  8
Sichtbare_Kanten_TC_020513_DIN_
  6
Continuous
 62
     7
100
AcDbPolyline
 90
        2
 70
     0
 43
0.5
 10
469.5278510678547
 20
1819.572774678799
 10
461.2778510678517
 20
1819.572774678799
  0
LWPOLYLINE
  5
1A3
330
1F
100
AcDbEntity
  8
Sichtbare_Kanten_TC_020513_DIN_
  6
Continuous
 62
     7
100
AcDbPolyline
 90
        2
 70
     0
 43
0.5
 10
461.2778510678517
 20
1795.572774678799
 10
469.5278510678547
 20
1795.572774678799
  0
LWPOLYLINE
  5
1A4
330
1F
100
AcDbEntity
  8
Sichtbare_Kanten_TC_020513_DIN_
  6
Continuous
 62
     7
100
AcDbPolyline
 90
        2
 70
     0
 43
0.5
 10
461.2778510678517
 20
1795.572774678799
 10
426.7778510678517
 20
1795.572774678799
  0
LWPOLYLINE
  5
1A5
330
1F
100
AcDbEntity
  8
Sichtbare_Kanten_TC_020513_DIN_
  6
Continuous
 62
     7
100
AcDbPolyline
 90
        2
 70
     0
 43
0.5
 10
418.5278510678547
 20
1795.572774678799
 10
426.7778510678517
 20
1795.572774678799
  0
LWPOLYLINE
  5
1A6
330
1F
100
AcDbEntity
  8
Sichtbare_Kanten_TC_020513_DIN_
  6
Continuous
 62
     7
100
AcDbPolyline
 90
        2
 70
     0
 43
0.5
 10
417.9278510678547
 20
1811.822774678799
 10
415.0278510678547
 20
1814.722774678799
  0
LWPOLYLINE
  5
1A7
330
1F
100
AcDbEntity
  8
Sichtbare_Kanten_TC_020513_DIN_
  6
Continuous
 62
     7
100
AcDbPolyline
 90
        2
 70
     0
 43
0.5
 10
415.0278510678697
 20
1808.7727746788
 10
415.0278510678547
 20
1814.722774678799
  0
LWPOLYLINE
  5
1A8
330
1F
100
AcDbEntity
  8
Sichtbare_Kanten_TC_020513_DIN_
  6
Continuous
 62
     7
100
AcDbPolyline
 90
        2
 70
     0
 43
0.5
 10
415.0278510678547
 20
1802.922774678799
 10
417.9278510678547
 20
1805.822774678799
  0
LWPOLYLINE
  5
1A9
330
1F
100
AcDbEntity
  8
Sichtbare_Kanten_TC_020513_DIN_
  6
Continuous
 62
     7
100
AcDbPolyline
 90
        2
 70
     0
 43
0.5
 10
417.9278510678547
 20
1805.822774678799
 10
417.9278510678847
 20
1805.8727746788
  0
LWPOLYLINE
  5
1AA
330
1F
100
AcDbEntity
  8
Sichtbare_Kanten_TC_020513_DIN_
  6
Continuous
 62
     7
100
AcDbPolyline
 90
        2
 70
     0
 43
0.5
 10
415.0278510678697
 20
1808.7727746788
 10
415.0278510678547
 20
1802.922774678799
  0
LWPOLYLINE
  5
1AB
330
1F
100
AcDbEntity
  8
Sichtbare_Kanten_TC_020513_DIN_
  6
Continuous
 62
     7
100
AcDbPolyline
 90
        2
 70
     0
 43
0.5
 10
417.9278510678547
 20
1805.822774678799
 10
427.0278510678517
 20
1805.822774678799
  0
LWPOLYLINE
  5
1AC
330
1F
100
AcDbEntity
  8
Sichtbare_Kanten_TC_020513_DIN_
  6
Continuous
 62
     7
100
AcDbPolyline
 90
        2
 70
     0
 43
0.5
 10
427.0278510678507
 20
1802.922774678799
 10
415.0278510678547
 20
1802.922774678799
  0
LWPOLYLINE
  5
1AD
330
1F
100
AcDbEntity
  8
Sichtbare_Kanten_TC_020513_DIN_
  6
Continuous
 62
     7
100
AcDbPolyline
 90
        2
 70
     0
 43
0.5
 10
445.0278510678517
 20
1805.822774678799
 10
427.0278510678517
 20
1805.822774678799
  0
LWPOLYLINE
  5
1AE
330
1F
100
AcDbEntity
  8
Sichtbare_Kanten_TC_020513_DIN_
  6
Continuous
 62
     7
100
AcDbPolyline
 90
        2
 70
     0
 43
0.5
 10
427.0278510678507
 20
1802.922774678799
 10
445.0278510678508
 20
1802.922774678799
  0
LWPOLYLINE
  5
1AF
330
1F
100
AcDbEntity
  8
Sichtbare_Kanten_TC_020513_DIN_
  6
Continuous
 62
     7
100
AcDbPolyline
 90
        2
 70
     0
 43
0.5
 10
452.4801788976397
 20
1805.822774678799
 10
445.0278510678517
 20
1805.822774678799
  0
LWPOLYLINE
  5
1B0
330
1F
100
AcDbEntity
  8
Sichtbare_Kanten_TC_020513_DIN_
  6
Continuous
 62
     7
100
AcDbPolyline
 90
        2
 70
     0
 43
0.5
 10
445.0278510678508
 20
1802.922774678799
 10
452.4801788976387
 20
1802.922774678799
  0
LWPOLYLINE
  5
1B1
330
1F
100
AcDbEntity
  8
Sichtbare_Kanten_TC_020513_DIN_
  6
Continuous
 62
     7
100
AcDbPolyline
 90
        2
 70
     0
 43
0.5
 10
415.0278510678547
 20
1814.722774678799
 10
427.0278510678507
 20
1814.722774678799
  0
LWPOLYLINE
  5
1B2
330
1F
100
AcDbEntity
  8
Sichtbare_Kanten_TC_020513_DIN_
  6
Continuous
 62
     7
100
AcDbPolyline
 90
        2
 70
     0
 43
0.5
 10
427.0278510678517
 20
1811.822774678799
 10
417.9278510678547
 20
1811.822774678799
  0
LWPOLYLINE
  5
1B3
330
1F
100
AcDbEntity
  8
Sichtbare_Kanten_TC_020513_DIN_
  6
Continuous
 62
     7
100
AcDbPolyline
 90
        2
 70
     0
 43
0.5
 10
445.0278510678508
 20
1814.722774678799
 10
427.0278510678507
 20
1814.722774678799
  0
LWPOLYLINE
  5
1B4
330
1F
100
AcDbEntity
  8
Sichtbare_Kanten_TC_020513_DIN_
  6
Continuous
 62
     7
100
AcDbPolyline
 90
        2
 70
     0
 43
0.5
 10
427.0278510678517
 20
1811.822774678799
 10
445.0278510678517
 20
1811.822774678799
  0
LWPOLYLINE
  5
1B5
330
1F
100
AcDbEntity
  8
Sichtbare_Kanten_TC_020513_DIN_
  6
Continuous
 62
     7
100
AcDbPolyline
 90
        2
 70
     0
 43
0.5
 10
452.4801788976387
 20
1814.722774678799
 10
445.0278510678508
 20
1814.722774678799
  0
LWPOLYLINE
  5
1B6
330
1F
100
AcDbEntity
  8
Sichtbare_Kanten_TC_020513_DIN_
  6
Continuous
 62
     7
100
AcDbPolyline
 90
        2
 70
     0
 43
0.5
 10
445.0278510678517
 20
1811.822774678799
 10
452.4801788976397
 20
1811.822774678799
  0
LWPOLYLINE
  5
1B7
330
1F
100
AcDbEntity
  8
Sichtbare_Kanten_TC_020513_DIN_
  6
Continuous
 62
     7
100
AcDbPolyline
 90
        2
 70
     0
 43
0.5
 10
417.9278510678547
 20
1811.822774678799
 10
417.9278510678847
 20
1805.8727746788
  0
LWPOLYLINE
  5
1B8
330
1F
100
AcDbEntity
  8
Sichtbare_Kanten_TC_020513_DIN_
  6
Continuous
 62
     7
100
AcDbPolyline
 90
        2
 70
     0
 43
0.5
 10
418.0278510678697
 20
1805.8727746788
 10
417.9278510678847
 20
1805.8727746788
  0
LWPOLYLINE
  5
1B9
330
1F
100
AcDbEntity
  8
Sichtbare_Kanten_TC_020513_DIN_
  6
Continuous
 62
     7
100
AcDbPolyline
 90
        2
 70
     0
 43
0.5
 10
418.0278510678547
 20
1811.822774678799
 10
418.0278510678547
 20
1805.822774678799
  0
LWPOLYLINE
  5
1BA
330
1F
100
AcDbEntity
  8
Sichtbare_Kanten_TC_020513_DIN_
  6
Continuous
 62
     7
100
AcDbPolyline
 90
        2
 70
     0
 43
0.5
 10
452.4801788976387
 20
1802.922774678799
 10
452.4801788976387
 20
1814.722774678799
  0
LINE
  5
1BB
330
1F
100
AcDbEntity
  8
0
  6
Continuous
 62
     7
100
AcDbLine
 10
673.9838936544703
 20
1717.362765149587
 30
0.0
 11
673.9838936544705
 21
1730.162047190399
 31
0.0
  0
LINE
  5
1BC
330
1F
100
AcDbEntity
  8
0
  6
Continuous
 62
     2
100
AcDbLine
 10
548.2834074464062
 20
1713.662047190399
 30
0.0
 11
548.2834074464062
 21
1712.326406280591
 31
0.0
  0
LINE
  5
1BD
330
1F
100
AcDbEntity
  8
0
  6
Continuous
 62
     2
100
AcDbLine
 10
548.2834074464062
 20
1766.997688100208
 30
0.0
 11
548.2834074464062
 21
1765.662047190399
 31
0.0
  0
LINE
  5
1BE
330
1F
100
AcDbEntity
  8
0
  6
Continuous
 62
     2
100
AcDbLine
 10
541.7834074464062
 20
1757.662047190399
 30
0.0
 11
538.947766536597
 21
1757.662047190399
 31
0.0
  0
LINE
  5
1BF
330
1F
100
AcDbEntity
  8
0
  6
Continuous
 62
     7
100
AcDbLine
 10
538.947766536597
 20
1721.662047190399
 30
0.0
 11
538.947766536597
 21
1757.662047190399
 31
0.0
  0
LINE
  5
1C0
330
1F
100
AcDbEntity
  8
0
  6
Continuous
 62
     7
100
AcDbLine
 10
548.2834074464062
 20
1712.326406280591
 30
0.0
 11
682.7878587743124
 21
1712.326406280591
 31
0.0
  0
LINE
  5
1C1
330
1F
100
AcDbEntity
  8
0
  6
Continuous
 62
     2
100
AcDbLine
 10
682.7878587743124
 20
1712.326406280591
 30
0.0
 11
682.7878587743124
 21
1713.662047190399
 31
0.0
  0
LINE
  5
1C2
330
1F
100
AcDbEntity
  8
0
  6
Continuous
 62
     2
100
AcDbLine
 10
692.1234996841214
 20
1721.662047190399
 30
0.0
 11
689.2878587743124
 21
1721.662047190399
 31
0.0
  0
LINE
  5
1C3
330
1F
100
AcDbEntity
  8
0
  6
Continuous
 62
     2
100
AcDbLine
 10
689.2878587743124
 20
1757.662047190399
 30
0.0
 11
692.1234996841214
 21
1757.662047190399
 31
0.0
  0
LINE
  5
1C4
330
1F
100
AcDbEntity
  8
0
  6
Continuous
 62
     7
100
AcDbLine
 10
548.2834074464062
 20
1766.997688100208
 30
0.0
 11
682.7878587743124
 21
1766.997688100208
 31
0.0
  0
LINE
  5
1C5
330
1F
100
AcDbEntity
  8
0
  6
Continuous
 62
     2
100
AcDbLine
 10
682.7878587743124
 20
1765.662047190399
 30
0.0
 11
682.7878587743124
 21
1766.997688100208
 31
0.0
  0
LINE
  5
1C6
330
1F
100
AcDbEntity
  8
0
  6
Continuous
 62
     7
100
AcDbLine
 10
692.1234996841214
 20
1721.662047190399
 30
0.0
 11
692.1234996841214
 21
1757.662047190399
 31
0.0
  0
LINE
  5
1C7
330
1F
100
AcDbEntity
  8
0
  6
Continuous
 62
     7
100
AcDbLine
 10
689.2878587743124
 20
1757.662047190399
 30
0.0
 11
689.2878587743124
 21
1762.655793279259
 31
0.0
  0
LINE
  5
1C8
330
1F
100
AcDbEntity
  8
0
  6
Continuous
 62
     7
100
AcDbLine
 10
689.2878587743124
 20
1721.662047190399
 30
0.0
 11
689.2878587743124
 21
1757.662047190399
 31
0.0
  0
LINE
  5
1C9
330
1F
100
AcDbEntity
  8
0
  6
Continuous
 62
     7
100
AcDbLine
 10
689.2878587743124
 20
1716.66830110154
 30
0.0
 11
689.2878587743124
 21
1721.662047190399
 31
0.0
  0
LINE
  5
1CA
330
1F
100
AcDbEntity
  8
0
  6
Continuous
 62
     7
100
AcDbLine
 10
541.7834074464062
 20
1757.662047190399
 30
0.0
 11
541.7834074464062
 21
1762.655793279259
 31
0.0
  0
LINE
  5
1CB
330
1F
100
AcDbEntity
  8
0
  6
Continuous
 62
     7
100
AcDbLine
 10
541.7834074464062
 20
1716.66830110154
 30
0.0
 11
541.7834074464062
 21
1757.662047190399
 31
0.0
  0
LINE
  5
1CC
330
1F
100
AcDbEntity
  8
1
  6
Continuous
 62
     4
100
AcDbLine
 10
551.2217787755202
 20
1733.547842134306
 30
0.0
 11
553.2126602647867
 21
1733.547842134306
 31
0.0
  0
LINE
  5
1CD
330
1F
100
AcDbEntity
  8
1
  6
Continuous
 62
     4
100
AcDbLine
 10
551.9243528832884
 20
1732.669624499595
 30
0.0
 11
554.5111030073443
 21
1732.669624499595
 31
0.0
  0
LINE
  5
1CE
330
1F
100
AcDbEntity
  8
1
  6
Continuous
 62
     4
100
AcDbLine
 10
552.6269269910566
 20
1731.791406864885
 30
0.0
 11
553.8085288995761
 21
1731.791406864885
 31
0.0
  0
LINE
  5
1CF
330
1F
100
AcDbEntity
  8
1
  6
Continuous
 62
     4
100
AcDbLine
 10
553.2126602647867
 20
1735.418966673384
 30
0.0
 11
553.2126602647867
 21
1733.547842134306
 31
0.0
  0
LINE
  5
1D0
330
1F
100
AcDbEntity
  8
1
  6
Continuous
 62
     4
100
AcDbLine
 10
553.2126602647867
 20
1733.547842134306
 30
0.0
 11
555.2136771151125
 21
1733.547842134306
 31
0.0
  0
LINE
  5
1D1
330
1F
100
AcDbEntity
  8
1
  6
Continuous
 62
     4
100
AcDbLine
 10
675.8575891056051
 20
1733.547842134306
 30
0.0
 11
677.8586059559312
 21
1733.547842134306
 31
0.0
  0
LINE
  5
1D2
330
1F
100
AcDbEntity
  8
1
  6
Continuous
 62
     4
100
AcDbLine
 10
677.8586059559312
 20
1733.547842134306
 30
0.0
 11
677.8586059559312
 21
1735.418966673384
 31
0.0
  0
LINE
  5
1D3
330
1F
100
AcDbEntity
  8
1
  6
Continuous
 62
     4
100
AcDbLine
 10
677.2627373211416
 20
1731.791406864885
 30
0.0
 11
678.4443392296611
 21
1731.791406864885
 31
0.0
  0
LINE
  5
1D4
330
1F
100
AcDbEntity
  8
1
  6
Continuous
 62
     4
100
AcDbLine
 10
676.5601632133736
 20
1732.669624499595
 30
0.0
 11
679.1469133374293
 21
1732.669624499595
 31
0.0
  0
LINE
  5
1D5
330
1F
100
AcDbEntity
  8
1
  6
Continuous
 62
     4
100
AcDbLine
 10
677.8586059559312
 20
1733.547842134306
 30
0.0
 11
679.8494874451975
 21
1733.547842134306
 31
0.0
  0
LINE
  5
1D6
330
1F
100
AcDbEntity
  8
1
  6
Continuous
 62
     2
100
AcDbLine
 10
537.2873790689335
 20
1739.662047190399
 30
0.0
 11
537.2873790689335
 21
1739.762047190399
 31
0.0
  0
LINE
  5
1D7
330
1F
100
AcDbEntity
  8
1
  6
Continuous
 62
     2
100
AcDbLine
 10
693.7938871517844
 20
1739.662047190399
 30
0.0
 11
693.7938871517844
 21
1739.562047190399
 31
0.0
  0
LINE
  5
1D8
330
1F
100
AcDbEntity
  8
0
  6
Continuous
 62
     7
100
AcDbLine
 10
693.7938871517844
 20
1739.662047190399
 30
0.0
 11
693.8641502283145
 21
1742.345285828554
 31
0.0
  0
LINE
  5
1D9
330
1F
100
AcDbEntity
  8
0
  6
Continuous
 62
     7
100
AcDbLine
 10
537.2873790689335
 20
1739.662047190399
 30
0.0
 11
537.2071159924034
 21
1736.978808552244
 31
0.0
  0
LINE
  5
1DA
330
1F
100
AcDbEntity
  8
0
  6
Continuous
 62
     2
100
AcDbLine
 10
547.7833395036563
 20
1767.662047190399
 30
0.0
 11
704.787858774312
 21
1767.662047190399
 31
0.0
  0
LINE
  5
1DB
330
1F
100
AcDbEntity
  8
0
  6
Continuous
 62
     2
100
AcDbLine
 10
548.0334074464057
 20
1764.218671517425
 30
0.0
 11
548.0334074464057
 21
1765.662047190399
 31
0.0
  0
LINE
  5
1DC
330
1F
100
AcDbEntity
  8
0
  6
Continuous
 62
     4
100
AcDbLine
 10
567.6031652733285
 20
1762.004963570166
 30
0.0
 11
663.4681009473899
 21
1762.004963570166
 31
0.0
  0
LINE
  5
1DD
330
1F
100
AcDbEntity
  8
0
  6
Continuous
 62
     4
100
AcDbLine
 10
557.3494114626627
 20
1762.004963570166
 30
0.0
 11
558.4636496194838
 21
1762.004963570166
 31
0.0
  0
LINE
  5
1DE
330
1F
100
AcDbEntity
  8
0
  6
Continuous
 62
     2
100
AcDbLine
 10
565.950502202394
 20
1760.657740871908
 30
0.0
 11
566.1032223887322
 21
1760.505020685569
 31
0.0
  0
LINE
  5
1DF
330
1F
100
AcDbEntity
  8
0
  6
Continuous
 62
     2
100
AcDbLine
 10
567.4461387684981
 20
1762.161990074996
 30
0.0
 11
567.6031652733285
 21
1762.004963570166
 31
0.0
  0
LINE
  5
1E0
330
1F
100
AcDbEntity
  8
0
  6
Continuous
 62
     2
100
AcDbLine
 10
567.4461387684981
 20
1762.161990074996
 30
0.0
 11
567.4461387684986
 21
1762.157677575266
 31
0.0
  0
LINE
  5
1E1
330
1F
100
AcDbEntity
  8
0
  6
Continuous
 62
     2
100
AcDbLine
 10
567.4461387684986
 20
1762.162047190399
 30
0.0
 11
567.4461387684981
 21
1762.161990074996
 31
0.0
  0
LINE
  5
1E2
330
1F
100
AcDbEntity
  8
0
  6
Continuous
 62
     2
100
AcDbLine
 10
550.2834074464057
 20
1762.162047190399
 30
0.0
 11
550.2834074464057
 21
1761.961329231212
 31
0.0
  0
LINE
  5
1E3
330
1F
100
AcDbEntity
  8
0
  6
Continuous
 62
     7
100
AcDbLine
 10
558.6206761243137
 20
1762.162047190399
 30
0.0
 11
550.2834074464057
 21
1762.162047190399
 31
0.0
  0
LINE
  5
1E4
330
1F
100
AcDbEntity
  8
0
  6
Continuous
 62
     4
100
AcDbLine
 10
557.0873725662476
 20
1761.961329231212
 30
0.0
 11
550.2834074464057
 21
1761.961329231212
 31
0.0
  0
LINE
  5
1E5
330
1F
100
AcDbEntity
  8
0
  6
Continuous
 62
     4
100
AcDbLine
 10
557.0873725662476
 20
1761.961329231212
 30
0.0
 11
557.3494114626627
 21
1762.004963570166
 31
0.0
  0
LINE
  5
1E6
330
1F
100
AcDbEntity
  8
0
  6
Continuous
 62
     7
100
AcDbLine
 10
567.4461387684986
 20
1762.157677575266
 30
0.0
 11
567.0275555909915
 21
1762.576260752772
 31
0.0
  0
LINE
  5
1E7
330
1F
100
AcDbEntity
  8
0
  6
Continuous
 62
     7
100
AcDbLine
 10
559.0392593018208
 20
1762.576260752772
 30
0.0
 11
558.6206761243137
 21
1762.157677575266
 31
0.0
  0
LINE
  5
1E8
330
1F
100
AcDbEntity
  8
0
  6
Continuous
 62
     2
100
AcDbLine
 10
558.6206761243137
 20
1762.161990074996
 30
0.0
 11
558.6206761243137
 21
1762.162047190399
 31
0.0
  0
LINE
  5
1E9
330
1F
100
AcDbEntity
  8
0
  6
Continuous
 62
     7
100
AcDbLine
 10
566.0334074464057
 20
1757.1620471904
 30
0.0
 11
560.0334074464057
 21
1757.1620471904
 31
0.0
  0
LINE
  5
1EA
330
1F
100
AcDbEntity
  8
0
  6
Continuous
 62
     7
100
AcDbLine
 10
565.950502202394
 20
1757.244952434412
 30
0.0
 11
566.0334074464057
 21
1757.1620471904
 31
0.0
  0
LINE
  5
1EB
330
1F
100
AcDbEntity
  8
0
  6
Continuous
 62
     7
100
AcDbLine
 10
565.950502202394
 20
1760.662047190399
 30
0.0
 11
565.950502202394
 21
1757.244952434412
 31
0.0
  0
LINE
  5
1EC
330
1F
100
AcDbEntity
  8
0
  6
Continuous
 62
     7
100
AcDbLine
 10
565.950502202394
 20
1757.244952434412
 30
0.0
 11
560.1163126904179
 21
1757.244952434412
 31
0.0
  0
LINE
  5
1ED
330
1F
100
AcDbEntity
  8
0
  6
Continuous
 62
     7
100
AcDbLine
 10
560.0334074464057
 20
1757.1620471904
 30
0.0
 11
560.1163126904179
 21
1757.244952434412
 31
0.0
  0
LINE
  5
1EE
330
1F
100
AcDbEntity
  8
0
  6
Continuous
 62
     2
100
AcDbLine
 10
558.4636496194838
 20
1762.004963570166
 30
0.0
 11
558.6206761243137
 21
1762.161990074996
 31
0.0
  0
LINE
  5
1EF
330
1F
100
AcDbEntity
  8
0
  6
Continuous
 62
     2
100
AcDbLine
 10
558.6206761243137
 20
1762.157677575266
 30
0.0
 11
558.6206761243137
 21
1762.161990074996
 31
0.0
  0
LINE
  5
1F0
330
1F
100
AcDbEntity
  8
0
  6
Continuous
 62
     2
100
AcDbLine
 10
559.9635925040801
 20
1760.505020685569
 30
0.0
 11
560.1163126904179
 21
1760.657740871908
 31
0.0
  0
LINE
  5
1F1
330
1F
100
AcDbEntity
  8
0
  6
Continuous
 62
     7
100
AcDbLine
 10
560.1163126904179
 20
1757.244952434412
 30
0.0
 11
560.1163126904179
 21
1760.657740871908
 31
0.0
  0
LINE
  5
1F2
330
1F
100
AcDbEntity
  8
0
  6
Continuous
 62
     7
100
AcDbLine
 10
565.6133420286186
 20
1763.162047190399
 30
0.0
 11
560.4534728641937
 21
1763.162047190399
 31
0.0
  0
LINE
  5
1F3
330
1F
100
AcDbEntity
  8
0
  6
Continuous
 62
     2
100
AcDbLine
 10
526.2834074464062
 20
1711.662047190399
 30
0.0
 11
526.2834074464062
 21
1710.662047190399
 31
0.0
  0
LINE
  5
1F4
330
1F
100
AcDbEntity
  8
0
  6
Continuous
 62
     7
100
AcDbLine
 10
542.0334074464057
 20
1760.305779885993
 30
0.0
 11
542.0334074464057
 21
1762.953549812528
 31
0.0
  0
LINE
  5
1F5
330
1F
100
AcDbEntity
  8
0
  6
Continuous
 62
     7
100
AcDbLine
 10
557.0873725662476
 20
1761.961329231212
 30
0.0
 11
557.0873725662476
 21
1749.162047190399
 31
0.0
  0
LINE
  5
1F6
330
1F
100
AcDbEntity
  8
0
  6
Continuous
 62
     7
100
AcDbLine
 10
537.7917662539011
 20
1758.923816673478
 30
0.0
 11
537.2873790689335
 21
1739.662047190399
 31
0.0
  0
LINE
  5
1F7
330
1F
100
AcDbEntity
  8
0
  6
Continuous
 62
     2
100
AcDbLine
 10
520.2834074464062
 20
1717.662047190399
 30
0.0
 11
520.2834074464062
 21
1723.162047190399
 31
0.0
  0
LINE
  5
1F8
330
1F
100
AcDbEntity
  8
0
  6
Continuous
 62
     2
100
AcDbLine
 10
526.2834074464062
 20
1729.162047190399
 30
0.0
 11
530.2095147175745
 21
1729.162047190399
 31
0.0
  0
LINE
  5
1F9
330
1F
100
AcDbEntity
  8
0
  6
Continuous
 62
     2
100
AcDbLine
 10
538.2067733173789
 20
1736.952631603936
 30
0.0
 11
538.791423578877
 21
1758.89763972517
 31
0.0
  0
LINE
  5
1FA
330
1F
100
AcDbEntity
  8
0
  6
Continuous
 62
     2
100
AcDbLine
 10
537.2071159924034
 20
1736.978808552244
 30
0.0
 11
538.2067733173789
 21
1736.952631603936
 31
0.0
  0
LINE
  5
1FB
330
1F
100
AcDbEntity
  8
0
  6
Continuous
 62
     2
100
AcDbLine
 10
530.2095147175745
 20
1730.162047190399
 30
0.0
 11
530.2095147175745
 21
1729.162047190399
 31
0.0
  0
LINE
  5
1FC
330
1F
100
AcDbEntity
  8
0
  6
Continuous
 62
     2
100
AcDbLine
 10
526.2834074464062
 20
1729.162047190399
 30
0.0
 11
526.2834074464062
 21
1730.162047190399
 31
0.0
  0
LINE
  5
1FD
330
1F
100
AcDbEntity
  8
0
  6
Continuous
 62
     7
100
AcDbLine
 10
526.2834074464062
 20
1730.162047190399
 30
0.0
 11
530.2095147175745
 21
1730.162047190399
 31
0.0
  0
LINE
  5
1FE
330
1F
100
AcDbEntity
  8
0
  6
Continuous
 62
     2
100
AcDbLine
 10
537.7917662539011
 20
1758.923816673478
 30
0.0
 11
538.791423578877
 21
1758.89763972517
 31
0.0
  0
LINE
  5
1FF
330
1F
100
AcDbEntity
  8
0
  6
Continuous
 62
     7
100
AcDbLine
 10
560.0334074464057
 20
1757.1620471904
 30
0.0
 11
560.0334074464057
 21
1752.912047190399
 31
0.0
  0
LINE
  5
200
330
1F
100
AcDbEntity
  8
0
  6
Continuous
 62
     4
100
AcDbLine
 10
559.9635925040801
 20
1760.505020685569
 30
0.0
 11
559.9635925040801
 21
1752.912047190399
 31
0.0
  0
LINE
  5
201
330
1F
100
AcDbEntity
  8
0
  6
Continuous
 62
     7
100
AcDbLine
 10
566.0334074464057
 20
1757.1620471904
 30
0.0
 11
566.0334074464057
 21
1752.912047190399
 31
0.0
  0
LINE
  5
202
330
1F
100
AcDbEntity
  8
0
  6
Continuous
 62
     4
100
AcDbLine
 10
566.1032223887322
 20
1752.912047190399
 30
0.0
 11
566.1032223887322
 21
1760.505020685569
 31
0.0
  0
LINE
  5
203
330
1F
100
AcDbEntity
  8
0
  6
Continuous
 62
     4
100
AcDbLine
 10
544.4841254055931
 20
1726.12157601536
 30
0.0
 11
544.4841254055931
 21
1753.202518365439
 31
0.0
  0
LINE
  5
204
330
1F
100
AcDbEntity
  8
0
  6
Continuous
 62
     2
100
AcDbLine
 10
566.0334074464057
 20
1726.412047190399
 30
0.0
 11
566.1032223887322
 21
1726.412047190399
 31
0.0
  0
LINE
  5
205
330
1F
100
AcDbEntity
  8
0
  6
Continuous
 62
     7
100
AcDbLine
 10
566.0334074464057
 20
1726.412047190399
 30
0.0
 11
566.0334074464057
 21
1722.162047190399
 31
0.0
  0
LINE
  5
206
330
1F
100
AcDbEntity
  8
0
  6
Continuous
 62
     4
100
AcDbLine
 10
566.1032223887322
 20
1718.819073695229
 30
0.0
 11
566.1032223887322
 21
1726.412047190399
 31
0.0
  0
LINE
  5
207
330
1F
100
AcDbEntity
  8
0
  6
Continuous
 62
     2
100
AcDbLine
 10
566.0334074464057
 20
1752.912047190399
 30
0.0
 11
566.1032223887322
 21
1752.912047190399
 31
0.0
  0
LINE
  5
208
330
1F
100
AcDbEntity
  8
0
  6
Continuous
 62
     2
100
AcDbLine
 10
559.9635925040801
 20
1752.912047190399
 30
0.0
 11
560.0334074464057
 21
1752.912047190399
 31
0.0
  0
LINE
  5
209
330
1F
100
AcDbEntity
  8
0
  6
Continuous
 62
     4
100
AcDbLine
 10
559.9635925040801
 20
1726.412047190399
 30
0.0
 11
559.9635925040801
 21
1718.819073695229
 31
0.0
  0
LINE
  5
20A
330
1F
100
AcDbEntity
  8
0
  6
Continuous
 62
     7
100
AcDbLine
 10
560.0334074464057
 20
1726.412047190399
 30
0.0
 11
560.0334074464057
 21
1722.162047190399
 31
0.0
  0
LINE
  5
20B
330
1F
100
AcDbEntity
  8
0
  6
Continuous
 62
     2
100
AcDbLine
 10
560.0334074464057
 20
1726.412047190399
 30
0.0
 11
559.9635925040801
 21
1726.412047190399
 31
0.0
  0
LINE
  5
20C
330
1F
100
AcDbEntity
  8
0
  6
Continuous
 62
     7
100
AcDbLine
 10
544.2834074464062
 20
1753.162047190398
 30
0.0
 11
544.2834074464057
 21
1726.162047190399
 31
0.0
  0
LINE
  5
20D
330
1F
100
AcDbEntity
  8
0
  6
Continuous
 62
     7
100
AcDbLine
 10
560.1163126904179
 20
1722.079141946387
 30
0.0
 11
560.0334074464057
 21
1722.162047190399
 31
0.0
  0
LINE
  5
20E
330
1F
100
AcDbEntity
  8
0
  6
Continuous
 62
     7
100
AcDbLine
 10
560.0334074464057
 20
1722.162047190399
 30
0.0
 11
566.0334074464057
 21
1722.162047190399
 31
0.0
  0
LINE
  5
20F
330
1F
100
AcDbEntity
  8
0
  6
Continuous
 62
     7
100
AcDbLine
 10
566.0334074464057
 20
1722.162047190399
 30
0.0
 11
565.950502202394
 21
1722.079141946387
 31
0.0
  0
LINE
  5
210
330
1F
100
AcDbEntity
  8
0
  6
Continuous
 62
     7
100
AcDbLine
 10
560.1163126904179
 20
1722.079141946387
 30
0.0
 11
565.950502202394
 21
1722.079141946387
 31
0.0
  0
LINE
  5
211
330
1F
100
AcDbEntity
  8
0
  6
Continuous
 62
     2
100
AcDbLine
 10
526.2834074464062
 20
1711.662047190399
 30
0.0
 11
615.5306331103588
 21
1711.662047190399
 31
0.0
  0
LINE
  5
212
330
1F
100
AcDbEntity
  8
0
  6
Continuous
 62
     2
100
AcDbLine
 10
560.1163126904179
 20
1718.666353508891
 30
0.0
 11
559.9635925040801
 21
1718.819073695229
 31
0.0
  0
LINE
  5
213
330
1F
100
AcDbEntity
  8
0
  6
Continuous
 62
     2
100
AcDbLine
 10
566.1032223887322
 20
1718.819073695229
 30
0.0
 11
565.950502202394
 21
1718.666353508891
 31
0.0
  0
LINE
  5
214
330
1F
100
AcDbEntity
  8
0
  6
Continuous
 62
     2
100
AcDbLine
 10
567.6031652733285
 20
1717.319130810633
 30
0.0
 11
567.4461387684981
 21
1717.162104305803
 31
0.0
  0
LINE
  5
215
330
1F
100
AcDbEntity
  8
0
  6
Continuous
 62
     2
100
AcDbLine
 10
567.4461387684986
 20
1717.166416805533
 30
0.0
 11
567.4461387684981
 21
1717.162104305803
 31
0.0
  0
LINE
  5
216
330
1F
100
AcDbEntity
  8
0
  6
Continuous
 62
     7
100
AcDbLine
 10
548.0334074464057
 20
1715.105422863373
 30
0.0
 11
615.5306331103588
 21
1715.105422863373
 31
0.0
  0
LINE
  5
217
330
1F
100
AcDbEntity
  8
0
  6
Continuous
 62
     7
100
AcDbLine
 10
567.4461387684986
 20
1717.162047190399
 30
0.0
 11
615.5306331103588
 21
1717.162047190399
 31
0.0
  0
LINE
  5
218
330
1F
100
AcDbEntity
  8
0
  6
Continuous
 62
     7
100
AcDbLine
 10
560.4534728641937
 20
1716.162047190399
 30
0.0
 11
565.6133420286186
 21
1716.162047190399
 31
0.0
  0
LINE
  5
219
330
1F
100
AcDbEntity
  8
0
  6
Continuous
 62
     2
100
AcDbLine
 10
548.0334074464057
 20
1715.105422863373
 30
0.0
 11
548.0334074464057
 21
1713.662047190399
 31
0.0
  0
LINE
  5
21A
330
1F
100
AcDbEntity
  8
0
  6
Continuous
 62
     7
100
AcDbLine
 10
542.0334074464057
 20
1716.37054456827
 30
0.0
 11
542.0334074464057
 21
1719.018314494806
 31
0.0
  0
LINE
  5
21B
330
1F
100
AcDbEntity
  8
0
  6
Continuous
 62
     7
100
AcDbLine
 10
550.2834074464057
 20
1717.162047190399
 30
0.0
 11
558.6206761243137
 21
1717.162047190399
 31
0.0
  0
LINE
  5
21C
330
1F
100
AcDbEntity
  8
0
  6
Continuous
 62
     2
100
AcDbLine
 10
550.2834074464057
 20
1717.162047190399
 30
0.0
 11
550.2834074464057
 21
1717.362765149587
 31
0.0
  0
LINE
  5
21D
330
1F
100
AcDbEntity
  8
0
  6
Continuous
 62
     4
100
AcDbLine
 10
557.0873725662476
 20
1717.362765149587
 30
0.0
 11
550.2834074464057
 21
1717.362765149587
 31
0.0
  0
LINE
  5
21E
330
1F
100
AcDbEntity
  8
0
  6
Continuous
 62
     4
100
AcDbLine
 10
557.3494114626627
 20
1717.319130810633
 30
0.0
 11
557.0873725662476
 21
1717.362765149587
 31
0.0
  0
LINE
  5
21F
330
1F
100
AcDbEntity
  8
0
  6
Continuous
 62
     4
100
AcDbLine
 10
558.4636496194838
 20
1717.319130810633
 30
0.0
 11
557.3494114626627
 21
1717.319130810633
 31
0.0
  0
LINE
  5
220
330
1F
100
AcDbEntity
  8
0
  6
Continuous
 62
     2
100
AcDbLine
 10
558.6206761243137
 20
1717.162104305803
 30
0.0
 11
558.4636496194838
 21
1717.319130810633
 31
0.0
  0
LINE
  5
221
330
1F
100
AcDbEntity
  8
0
  6
Continuous
 62
     7
100
AcDbLine
 10
558.6206761243137
 20
1717.166416805533
 30
0.0
 11
559.0392593018208
 21
1716.747833628027
 31
0.0
  0
LINE
  5
222
330
1F
100
AcDbEntity
  8
0
  6
Continuous
 62
     2
100
AcDbLine
 10
558.6206761243137
 20
1717.162047190399
 30
0.0
 11
558.6206761243137
 21
1717.162104305803
 31
0.0
  0
LINE
  5
223
330
1F
100
AcDbEntity
  8
0
  6
Continuous
 62
     2
100
AcDbLine
 10
558.6206761243137
 20
1717.162104305803
 30
0.0
 11
558.6206761243137
 21
1717.166416805533
 31
0.0
  0
LINE
  5
224
330
1F
100
AcDbEntity
  8
0
  6
Continuous
 62
     7
100
AcDbLine
 10
567.0275555909915
 20
1716.747833628027
 30
0.0
 11
567.4461387684986
 21
1717.166416805533
 31
0.0
  0
LINE
  5
225
330
1F
100
AcDbEntity
  8
0
  6
Continuous
 62
     2
100
AcDbLine
 10
567.4461387684981
 20
1717.162104305803
 30
0.0
 11
567.4461387684986
 21
1717.162047190399
 31
0.0
  0
LINE
  5
226
330
1F
100
AcDbEntity
  8
0
  6
Continuous
 62
     7
100
AcDbLine
 10
565.950502202394
 20
1722.079141946387
 30
0.0
 11
565.950502202394
 21
1718.666353508891
 31
0.0
  0
LINE
  5
227
330
1F
100
AcDbEntity
  8
0
  6
Continuous
 62
     7
100
AcDbLine
 10
560.1163126904179
 20
1718.666353508891
 30
0.0
 11
560.1163126904179
 21
1722.079141946387
 31
0.0
  0
LINE
  5
228
330
1F
100
AcDbEntity
  8
0
  6
Continuous
 62
     7
100
AcDbLine
 10
547.0634074464059
 20
1748.162047190399
 30
0.0
 11
547.0634074464059
 21
1731.162047190399
 31
0.0
  0
LINE
  5
229
330
1F
100
AcDbEntity
  8
0
  6
Continuous
 62
     7
100
AcDbLine
 10
557.0611686766059
 20
1730.162047190399
 30
0.0
 11
557.0873725662476
 21
1730.162047190399
 31
0.0
  0
LINE
  5
22A
330
1F
100
AcDbEntity
  8
0
  6
Continuous
 62
     7
100
AcDbLine
 10
557.0873725662476
 20
1730.162047190399
 30
0.0
 11
557.0873725662476
 21
1717.362765149587
 31
0.0
  0
LINE
  5
22B
330
1F
100
AcDbEntity
  8
0
  6
Continuous
 62
     7
100
AcDbLine
 10
548.0634074464059
 20
1730.162047190399
 30
0.0
 11
557.0611686766059
 21
1730.162047190399
 31
0.0
  0
LINE
  5
22C
330
1F
100
AcDbEntity
  8
0
  6
Continuous
 62
     7
100
AcDbLine
 10
557.0611686766059
 20
1749.162047190399
 30
0.0
 11
548.0634074464059
 21
1749.162047190399
 31
0.0
  0
LINE
  5
22D
330
1F
100
AcDbEntity
  8
0
  6
Continuous
 62
     7
100
AcDbLine
 10
557.0873725662476
 20
1749.162047190399
 30
0.0
 11
557.0611686766059
 21
1749.162047190399
 31
0.0
  0
LINE
  5
22E
330
1F
100
AcDbEntity
  8
0
  6
Continuous
 62
     7
100
AcDbLine
 10
557.0611686766059
 20
1730.162047190399
 30
0.0
 11
557.0611686766059
 21
1749.162047190399
 31
0.0
  0
LINE
  5
22F
330
1F
100
AcDbEntity
  8
0
  6
Continuous
 62
     7
100
AcDbLine
 10
542.0334074464057
 20
1719.018314494806
 30
0.0
 11
542.0334074464057
 21
1760.305779885993
 31
0.0
  0
LINE
  5
230
330
1F
100
AcDbEntity
  8
0
  6
Continuous
 62
     2
100
AcDbLine
 10
520.2834074464062
 20
1723.162047190399
 30
0.0
 11
519.2834074464062
 21
1723.162047190399
 31
0.0
  0
LINE
  5
231
330
1F
100
AcDbEntity
  8
0
  6
Continuous
 62
     2
100
AcDbLine
 10
519.2834074464062
 20
1717.662047190399
 30
0.0
 11
520.2834074464062
 21
1717.662047190399
 31
0.0
  0
LINE
  5
232
330
1F
100
AcDbEntity
  8
0
  6
Continuous
 62
     7
100
AcDbLine
 10
519.2834074464062
 20
1717.662047190399
 30
0.0
 11
519.2834074464062
 21
1723.162047190399
 31
0.0
  0
LINE
  5
233
330
1F
100
AcDbEntity
  8
0
  6
Continuous
 62
     2
100
AcDbLine
 10
547.7833395036563
 20
1768.662047190399
 30
0.0
 11
547.7833395036563
 21
1767.662047190399
 31
0.0
  0
LINE
  5
234
330
1F
100
AcDbEntity
  8
0
  6
Continuous
 62
     7
100
AcDbLine
 10
615.5306331103588
 20
1713.662047190399
 30
0.0
 11
548.0334074464057
 21
1713.662047190399
 31
0.0
  0
LINE
  5
235
330
1F
100
AcDbEntity
  8
0
  6
Continuous
 62
     4
100
AcDbLine
 10
663.4681009473899
 20
1717.319130810633
 30
0.0
 11
567.6031652733285
 21
1717.319130810633
 31
0.0
  0
LINE
  5
236
330
1F
100
AcDbEntity
  8
0
  6
Continuous
 62
     7
100
AcDbLine
 10
526.2834074464062
 20
1710.662047190399
 30
0.0
 11
683.2879267170614
 21
1710.662047190399
 31
0.0
  0
LINE
  5
237
330
1F
100
AcDbEntity
  8
0
  6
Continuous
 62
     7
100
AcDbLine
 10
704.787858774312
 20
1768.662047190399
 30
0.0
 11
547.7833395036563
 21
1768.662047190399
 31
0.0
  0
LINE
  5
238
330
1F
100
AcDbEntity
  8
0
  6
Continuous
 62
     7
100
AcDbLine
 10
683.037858774312
 20
1764.218671517425
 30
0.0
 11
548.0334074464057
 21
1764.218671517425
 31
0.0
  0
LINE
  5
239
330
1F
100
AcDbEntity
  8
0
  6
Continuous
 62
     7
100
AcDbLine
 10
663.6251274522195
 20
1762.162047190399
 30
0.0
 11
567.4505022023935
 21
1762.162047190399
 31
0.0
  0
LINE
  5
23A
330
1F
100
AcDbEntity
  8
0
  6
Continuous
 62
     7
100
AcDbLine
 10
615.5306331103588
 20
1717.162047190399
 30
0.0
 11
663.6251274522195
 21
1717.162047190399
 31
0.0
  0
LINE
  5
23B
330
1F
100
AcDbEntity
  8
0
  6
Continuous
 62
     7
100
AcDbLine
 10
615.5306331103588
 20
1715.105422863373
 30
0.0
 11
683.037858774312
 21
1715.105422863373
 31
0.0
  0
LINE
  5
23C
330
1F
100
AcDbEntity
  8
0
  6
Continuous
 62
     2
100
AcDbLine
 10
683.2879267170614
 20
1710.662047190399
 30
0.0
 11
683.2879267170614
 21
1711.662047190399
 31
0.0
  0
LINE
  5
23D
330
1F
100
AcDbEntity
  8
0
  6
Continuous
 62
     7
100
AcDbLine
 10
711.787858774312
 20
1761.662047190399
 30
0.0
 11
711.787858774312
 21
1756.162047190399
 31
0.0
  0
LINE
  5
23E
330
1F
100
AcDbEntity
  8
0
  6
Continuous
 62
     2
100
AcDbLine
 10
711.787858774312
 20
1761.662047190399
 30
0.0
 11
710.787858774312
 21
1761.662047190399
 31
0.0
  0
LINE
  5
23F
330
1F
100
AcDbEntity
  8
0
  6
Continuous
 62
     2
100
AcDbLine
 10
710.787858774312
 20
1756.162047190399
 30
0.0
 11
711.787858774312
 21
1756.162047190399
 31
0.0
  0
LINE
  5
240
330
1F
100
AcDbEntity
  8
0
  6
Continuous
 62
     7
100
AcDbLine
 10
689.037858774312
 20
1760.305779885993
 30
0.0
 11
689.037858774312
 21
1719.018314494806
 31
0.0
  0
LINE
  5
241
330
1F
100
AcDbEntity
  8
0
  6
Continuous
 62
     7
100
AcDbLine
 10
674.010097544112
 20
1749.162047190399
 30
0.0
 11
674.010097544112
 21
1730.162047190399
 31
0.0
  0
LINE
  5
242
330
1F
100
AcDbEntity
  8
0
  6
Continuous
 62
     7
100
AcDbLine
 10
673.9838936544705
 20
1730.162047190399
 30
0.0
 11
674.010097544112
 21
1730.162047190399
 31
0.0
  0
LINE
  5
243
330
1F
100
AcDbEntity
  8
0
  6
Continuous
 62
     7
100
AcDbLine
 10
674.010097544112
 20
1730.162047190399
 30
0.0
 11
682.987858774312
 21
1730.162047190399
 31
0.0
  0
LINE
  5
244
330
1F
100
AcDbEntity
  8
0
  6
Continuous
 62
     7
100
AcDbLine
 10
682.987858774312
 20
1749.162047190399
 30
0.0
 11
674.010097544112
 21
1749.162047190399
 31
0.0
  0
LINE
  5
245
330
1F
100
AcDbEntity
  8
0
  6
Continuous
 62
     7
100
AcDbLine
 10
673.9838936544703
 20
1749.162047190399
 30
0.0
 11
673.9838936544703
 21
1761.961329231212
 31
0.0
  0
LINE
  5
246
330
1F
100
AcDbEntity
  8
0
  6
Continuous
 62
     7
100
AcDbLine
 10
674.010097544112
 20
1749.162047190399
 30
0.0
 11
673.9838936544703
 21
1749.162047190399
 31
0.0
  0
LINE
  5
247
330
1F
100
AcDbEntity
  8
0
  6
Continuous
 62
     7
100
AcDbLine
 10
683.987858774312
 20
1731.162047190399
 30
0.0
 11
683.987858774312
 21
1748.162047190399
 31
0.0
  0
LINE
  5
248
330
1F
100
AcDbEntity
  8
0
  6
Continuous
 62
     7
100
AcDbLine
 10
670.9549535302998
 20
1760.657740871908
 30
0.0
 11
670.9549535302998
 21
1757.244952434412
 31
0.0
  0
LINE
  5
249
330
1F
100
AcDbEntity
  8
0
  6
Continuous
 62
     7
100
AcDbLine
 10
665.1207640183242
 20
1757.244952434412
 30
0.0
 11
665.1207640183242
 21
1760.657740871908
 31
0.0
  0
LINE
  5
24A
330
1F
100
AcDbEntity
  8
0
  6
Continuous
 62
     2
100
AcDbLine
 10
663.6251274522195
 20
1762.161990074996
 30
0.0
 11
663.6251274522195
 21
1762.162047190399
 31
0.0
  0
LINE
  5
24B
330
1F
100
AcDbEntity
  8
0
  6
Continuous
 62
     7
100
AcDbLine
 10
664.0437106297262
 20
1762.576260752772
 30
0.0
 11
663.6251274522195
 21
1762.157677575266
 31
0.0
  0
LINE
  5
24C
330
1F
100
AcDbEntity
  8
0
  6
Continuous
 62
     2
100
AcDbLine
 10
672.4505900964042
 20
1762.161990074996
 30
0.0
 11
672.4505900964042
 21
1762.157677575266
 31
0.0
  0
LINE
  5
24D
330
1F
100
AcDbEntity
  8
0
  6
Continuous
 62
     2
100
AcDbLine
 10
672.4505900964042
 20
1762.162047190399
 30
0.0
 11
672.4505900964042
 21
1762.161990074996
 31
0.0
  0
LINE
  5
24E
330
1F
100
AcDbEntity
  8
0
  6
Continuous
 62
     7
100
AcDbLine
 10
672.4505900964042
 20
1762.157677575266
 30
0.0
 11
672.0320069188973
 21
1762.576260752772
 31
0.0
  0
LINE
  5
24F
330
1F
100
AcDbEntity
  8
0
  6
Continuous
 62
     2
100
AcDbLine
 10
672.4505900964042
 20
1762.161990074996
 30
0.0
 11
672.6076166012346
 21
1762.004963570166
 31
0.0
  0
LINE
  5
250
330
1F
100
AcDbEntity
  8
0
  6
Continuous
 62
     4
100
AcDbLine
 10
672.6076166012346
 20
1762.004963570166
 30
0.0
 11
673.7218547580552
 21
1762.004963570166
 31
0.0
  0
LINE
  5
251
330
1F
100
AcDbEntity
  8
0
  6
Continuous
 62
     4
100
AcDbLine
 10
673.7218547580552
 20
1762.004963570166
 30
0.0
 11
673.9838936544703
 21
1761.961329231212
 31
0.0
  0
LINE
  5
252
330
1F
100
AcDbEntity
  8
0
  6
Continuous
 62
     4
100
AcDbLine
 10
673.9838936544703
 20
1761.961329231212
 30
0.0
 11
680.787858774312
 21
1761.961329231212
 31
0.0
  0
LINE
  5
253
330
1F
100
AcDbEntity
  8
0
  6
Continuous
 62
     2
100
AcDbLine
 10
680.787858774312
 20
1762.162047190399
 30
0.0
 11
680.787858774312
 21
1761.961329231212
 31
0.0
  0
LINE
  5
254
330
1F
100
AcDbEntity
  8
0
  6
Continuous
 62
     7
100
AcDbLine
 10
680.787858774312
 20
1762.162047190399
 30
0.0
 11
672.4505900964042
 21
1762.162047190399
 31
0.0
  0
LINE
  5
255
330
1F
100
AcDbEntity
  8
0
  6
Continuous
 62
     7
100
AcDbLine
 10
689.037858774312
 20
1762.953549812528
 30
0.0
 11
689.037858774312
 21
1760.305779885993
 31
0.0
  0
LINE
  5
256
330
1F
100
AcDbEntity
  8
0
  6
Continuous
 62
     2
100
AcDbLine
 10
683.037858774312
 20
1764.218671517425
 30
0.0
 11
683.037858774312
 21
1765.662047190399
 31
0.0
  0
LINE
  5
257
330
1F
100
AcDbEntity
  8
0
  6
Continuous
 62
     7
100
AcDbLine
 10
670.6177933565242
 20
1763.162047190399
 30
0.0
 11
665.4579241920995
 21
1763.162047190399
 31
0.0
  0
LINE
  5
258
330
1F
100
AcDbEntity
  8
0
  6
Continuous
 62
     2
100
AcDbLine
 10
663.6251274522195
 20
1762.157677575266
 30
0.0
 11
663.6251274522195
 21
1762.161990074996
 31
0.0
  0
LINE
  5
259
330
1F
100
AcDbEntity
  8
0
  6
Continuous
 62
     2
100
AcDbLine
 10
663.4681009473899
 20
1762.004963570166
 30
0.0
 11
663.6251274522195
 21
1762.161990074996
 31
0.0
  0
LINE
  5
25A
330
1F
100
AcDbEntity
  8
0
  6
Continuous
 62
     2
100
AcDbLine
 10
664.9680438319862
 20
1760.505020685569
 30
0.0
 11
665.1207640183242
 21
1760.657740871908
 31
0.0
  0
LINE
  5
25B
330
1F
100
AcDbEntity
  8
0
  6
Continuous
 62
     2
100
AcDbLine
 10
670.9549535302998
 20
1760.657740871908
 30
0.0
 11
671.1076737166383
 21
1760.505020685569
 31
0.0
  0
LINE
  5
25C
330
1F
100
AcDbEntity
  8
0
  6
Continuous
 62
     7
100
AcDbLine
 10
670.9549535302998
 20
1757.244952434412
 30
0.0
 11
665.1207640183242
 21
1757.244952434412
 31
0.0
  0
LINE
  5
25D
330
1F
100
AcDbEntity
  8
0
  6
Continuous
 62
     7
100
AcDbLine
 10
665.037858774312
 20
1757.162047190399
 30
0.0
 11
665.1207640183242
 21
1757.244952434412
 31
0.0
  0
LINE
  5
25E
330
1F
100
AcDbEntity
  8
0
  6
Continuous
 62
     7
100
AcDbLine
 10
671.037858774312
 20
1757.162047190399
 30
0.0
 11
665.037858774312
 21
1757.162047190399
 31
0.0
  0
LINE
  5
25F
330
1F
100
AcDbEntity
  8
0
  6
Continuous
 62
     7
100
AcDbLine
 10
670.9549535302998
 20
1757.244952434412
 30
0.0
 11
671.037858774312
 21
1757.162047190399
 31
0.0
  0
LINE
  5
260
330
1F
100
AcDbEntity
  8
0
  6
Continuous
 62
     7
100
AcDbLine
 10
686.787858774312
 20
1726.162047190401
 30
0.0
 11
686.787858774312
 21
1753.162047190399
 31
0.0
  0
LINE
  5
261
330
1F
100
AcDbEntity
  8
0
  6
Continuous
 62
     2
100
AcDbLine
 10
671.037858774312
 20
1752.912047190399
 30
0.0
 11
671.107673716638
 21
1752.912047190399
 31
0.0
  0
LINE
  5
262
330
1F
100
AcDbEntity
  8
0
  6
Continuous
 62
     7
100
AcDbLine
 10
671.037858774312
 20
1752.912047190399
 30
0.0
 11
671.037858774312
 21
1757.162047190399
 31
0.0
  0
LINE
  5
263
330
1F
100
AcDbEntity
  8
0
  6
Continuous
 62
     4
100
AcDbLine
 10
671.107673716638
 20
1752.912047190399
 30
0.0
 11
671.1076737166383
 21
1760.505020685569
 31
0.0
  0
LINE
  5
264
330
1F
100
AcDbEntity
  8
0
  6
Continuous
 62
     2
100
AcDbLine
 10
671.107673716638
 20
1726.412047190399
 30
0.0
 11
671.037858774312
 21
1726.412047190399
 31
0.0
  0
LINE
  5
265
330
1F
100
AcDbEntity
  8
0
  6
Continuous
 62
     2
100
AcDbLine
 10
665.037858774312
 20
1726.412047190399
 30
0.0
 11
664.9680438319859
 21
1726.412047190399
 31
0.0
  0
LINE
  5
266
330
1F
100
AcDbEntity
  8
0
  6
Continuous
 62
     4
100
AcDbLine
 10
664.9680438319862
 20
1760.505020685569
 30
0.0
 11
664.9680438319859
 21
1752.912047190399
 31
0.0
  0
LINE
  5
267
330
1F
100
AcDbEntity
  8
0
  6
Continuous
 62
     7
100
AcDbLine
 10
665.037858774312
 20
1752.912047190399
 30
0.0
 11
665.037858774312
 21
1757.162047190399
 31
0.0
  0
LINE
  5
268
330
1F
100
AcDbEntity
  8
0
  6
Continuous
 62
     2
100
AcDbLine
 10
665.037858774312
 20
1752.912047190399
 30
0.0
 11
664.9680438319859
 21
1752.912047190399
 31
0.0
  0
LINE
  5
269
330
1F
100
AcDbEntity
  8
0
  6
Continuous
 62
     4
100
AcDbLine
 10
686.5871408151246
 20
1753.202518365439
 30
0.0
 11
686.5871408151246
 21
1726.12157601536
 31
0.0
  0
LINE
  5
26A
330
1F
100
AcDbEntity
  8
0
  6
Continuous
 62
     4
100
AcDbLine
 10
664.9680438319859
 20
1726.412047190399
 30
0.0
 11
664.9680438319862
 21
1718.819073695229
 31
0.0
  0
LINE
  5
26B
330
1F
100
AcDbEntity
  8
0
  6
Continuous
 62
     7
100
AcDbLine
 10
665.037858774312
 20
1722.162047190399
 30
0.0
 11
665.037858774312
 21
1726.412047190399
 31
0.0
  0
LINE
  5
26C
330
1F
100
AcDbEntity
  8
0
  6
Continuous
 62
     4
100
AcDbLine
 10
671.1076737166383
 20
1718.819073695229
 30
0.0
 11
671.107673716638
 21
1726.412047190399
 31
0.0
  0
LINE
  5
26D
330
1F
100
AcDbEntity
  8
0
  6
Continuous
 62
     7
100
AcDbLine
 10
671.037858774312
 20
1722.162047190399
 30
0.0
 11
671.037858774312
 21
1726.412047190399
 31
0.0
  0
LINE
  5
26E
330
1F
100
AcDbEntity
  8
0
  6
Continuous
 62
     2
100
AcDbLine
 10
693.2894999668168
 20
1720.400277707321
 30
0.0
 11
692.2898426418413
 21
1720.426454655629
 31
0.0
  0
LINE
  5
26F
330
1F
100
AcDbEntity
  8
0
  6
Continuous
 62
     7
100
AcDbLine
 10
704.787858774312
 20
1749.162047190399
 30
0.0
 11
700.6117515031436
 21
1749.162047190399
 31
0.0
  0
LINE
  5
270
330
1F
100
AcDbEntity
  8
0
  6
Continuous
 62
     2
100
AcDbLine
 10
704.787858774312
 20
1750.162047190399
 30
0.0
 11
704.787858774312
 21
1749.162047190399
 31
0.0
  0
LINE
  5
271
330
1F
100
AcDbEntity
  8
0
  6
Continuous
 62
     2
100
AcDbLine
 10
700.6117515031436
 20
1749.162047190399
 30
0.0
 11
700.6117515031436
 21
1750.162047190399
 31
0.0
  0
LINE
  5
272
330
1F
100
AcDbEntity
  8
0
  6
Continuous
 62
     2
100
AcDbLine
 10
693.8641502283145
 20
1742.345285828554
 30
0.0
 11
692.8644929033393
 21
1742.371462776862
 31
0.0
  0
LINE
  5
273
330
1F
100
AcDbEntity
  8
0
  6
Continuous
 62
     2
100
AcDbLine
 10
692.8644929033393
 20
1742.371462776862
 30
0.0
 11
692.2898426418413
 21
1720.426454655629
 31
0.0
  0
LINE
  5
274
330
1F
100
AcDbEntity
  8
0
  6
Continuous
 62
     2
100
AcDbLine
 10
704.787858774312
 20
1750.162047190399
 30
0.0
 11
700.6117515031436
 21
1750.162047190399
 31
0.0
  0
LINE
  5
275
330
1F
100
AcDbEntity
  8
0
  6
Continuous
 62
     2
100
AcDbLine
 10
710.787858774312
 20
1761.662047190399
 30
0.0
 11
710.787858774312
 21
1756.162047190399
 31
0.0
  0
LINE
  5
276
330
1F
100
AcDbEntity
  8
0
  6
Continuous
 62
     7
100
AcDbLine
 10
693.2894999668168
 20
1720.400277707321
 30
0.0
 11
693.7938871517844
 21
1739.662047190399
 31
0.0
  0
LINE
  5
277
330
1F
100
AcDbEntity
  8
0
  6
Continuous
 62
     7
100
AcDbLine
 10
689.037858774312
 20
1719.018314494806
 30
0.0
 11
689.037858774312
 21
1716.37054456827
 31
0.0
  0
LINE
  5
278
330
1F
100
AcDbEntity
  8
0
  6
Continuous
 62
     2
100
AcDbLine
 10
704.787858774312
 20
1767.662047190399
 30
0.0
 11
704.787858774312
 21
1768.662047190399
 31
0.0
  0
LINE
  5
279
330
1F
100
AcDbEntity
  8
0
  6
Continuous
 62
     7
100
AcDbLine
 10
665.4579241920995
 20
1716.162047190399
 30
0.0
 11
670.6177933565242
 21
1716.162047190399
 31
0.0
  0
LINE
  5
27A
330
1F
100
AcDbEntity
  8
0
  6
Continuous
 62
     7
100
AcDbLine
 10
670.9549535302998
 20
1722.079141946387
 30
0.0
 11
670.9549535302998
 21
1718.666353508891
 31
0.0
  0
LINE
  5
27B
330
1F
100
AcDbEntity
  8
0
  6
Continuous
 62
     2
100
AcDbLine
 10
671.1076737166383
 20
1718.819073695229
 30
0.0
 11
670.9549535302998
 21
1718.666353508891
 31
0.0
  0
LINE
  5
27C
330
1F
100
AcDbEntity
  8
0
  6
Continuous
 62
     2
100
AcDbLine
 10
672.4505900964042
 20
1717.166416805533
 30
0.0
 11
672.4505900964042
 21
1717.162104305803
 31
0.0
  0
LINE
  5
27D
330
1F
100
AcDbEntity
  8
0
  6
Continuous
 62
     2
100
AcDbLine
 10
672.6076166012346
 20
1717.319130810633
 30
0.0
 11
672.4505900964042
 21
1717.162104305803
 31
0.0
  0
LINE
  5
27E
330
1F
100
AcDbEntity
  8
0
  6
Continuous
 62
     7
100
AcDbLine
 10
671.037858774312
 20
1722.162047190399
 30
0.0
 11
670.9549535302998
 21
1722.079141946387
 31
0.0
  0
LINE
  5
27F
330
1F
100
AcDbEntity
  8
0
  6
Continuous
 62
     7
100
AcDbLine
 10
665.1207640183242
 20
1722.079141946387
 30
0.0
 11
670.9549535302998
 21
1722.079141946387
 31
0.0
  0
LINE
  5
280
330
1F
100
AcDbEntity
  8
0
  6
Continuous
 62
     7
100
AcDbLine
 10
665.1207640183242
 20
1718.666353508891
 30
0.0
 11
665.1207640183242
 21
1722.079141946387
 31
0.0
  0
LINE
  5
281
330
1F
100
AcDbEntity
  8
0
  6
Continuous
 62
     7
100
AcDbLine
 10
665.1207640183242
 20
1722.079141946387
 30
0.0
 11
665.037858774312
 21
1722.162047190399
 31
0.0
  0
LINE
  5
282
330
1F
100
AcDbEntity
  8
0
  6
Continuous
 62
     7
100
AcDbLine
 10
665.037858774312
 20
1722.162047190399
 30
0.0
 11
671.037858774312
 21
1722.162047190399
 31
0.0
  0
LINE
  5
283
330
1F
100
AcDbEntity
  8
0
  6
Continuous
 62
     2
100
AcDbLine
 10
672.4505900964042
 20
1717.162104305803
 30
0.0
 11
672.4505900964042
 21
1717.162047190399
 31
0.0
  0
LINE
  5
284
330
1F
100
AcDbEntity
  8
0
  6
Continuous
 62
     7
100
AcDbLine
 10
672.0320069188973
 20
1716.747833628027
 30
0.0
 11
672.4505900964042
 21
1717.166416805533
 31
0.0
  0
LINE
  5
285
330
1F
100
AcDbEntity
  8
0
  6
Continuous
 62
     7
100
AcDbLine
 10
663.6251274522195
 20
1717.166416805533
 30
0.0
 11
664.0437106297262
 21
1716.747833628027
 31
0.0
  0
LINE
  5
286
330
1F
100
AcDbEntity
  8
0
  6
Continuous
 62
     4
100
AcDbLine
 10
673.9838936544703
 20
1717.362765149587
 30
0.0
 11
673.7218547580552
 21
1717.319130810633
 31
0.0
  0
LINE
  5
287
330
1F
100
AcDbEntity
  8
0
  6
Continuous
 62
     4
100
AcDbLine
 10
673.9838936544703
 20
1717.362765149587
 30
0.0
 11
680.787858774312
 21
1717.362765149587
 31
0.0
  0
LINE
  5
288
330
1F
100
AcDbEntity
  8
0
  6
Continuous
 62
     7
100
AcDbLine
 10
672.4505900964042
 20
1717.162047190399
 30
0.0
 11
680.787858774312
 21
1717.162047190399
 31
0.0
  0
LINE
  5
289
330
1F
100
AcDbEntity
  8
0
  6
Continuous
 62
     2
100
AcDbLine
 10
680.787858774312
 20
1717.162047190399
 30
0.0
 11
680.787858774312
 21
1717.362765149587
 31
0.0
  0
LINE
  5
28A
330
1F
100
AcDbEntity
  8
0
  6
Continuous
 62
     2
100
AcDbLine
 10
663.6251274522195
 20
1717.162047190399
 30
0.0
 11
663.6251274522195
 21
1717.162104305803
 31
0.0
  0
LINE
  5
28B
330
1F
100
AcDbEntity
  8
0
  6
Continuous
 62
     2
100
AcDbLine
 10
663.6251274522195
 20
1717.162104305803
 30
0.0
 11
663.6251274522195
 21
1717.166416805533
 31
0.0
  0
LINE
  5
28C
330
1F
100
AcDbEntity
  8
0
  6
Continuous
 62
     2
100
AcDbLine
 10
663.6251274522195
 20
1717.162104305803
 30
0.0
 11
663.4681009473899
 21
1717.319130810633
 31
0.0
  0
LINE
  5
28D
330
1F
100
AcDbEntity
  8
0
  6
Continuous
 62
     2
100
AcDbLine
 10
665.1207640183242
 20
1718.666353508891
 30
0.0
 11
664.9680438319862
 21
1718.819073695229
 31
0.0
  0
LINE
  5
28E
330
1F
100
AcDbEntity
  8
0
  6
Continuous
 62
     4
100
AcDbLine
 10
673.7218547580552
 20
1717.319130810633
 30
0.0
 11
672.6076166012346
 21
1717.319130810633
 31
0.0
  0
LINE
  5
28F
330
1F
100
AcDbEntity
  8
0
  6
Continuous
 62
     7
100
AcDbLine
 10
683.037858774312
 20
1713.662047190399
 30
0.0
 11
615.5306331103588
 21
1713.662047190399
 31
0.0
  0
LINE
  5
290
330
1F
100
AcDbEntity
  8
0
  6
Continuous
 62
     2
100
AcDbLine
 10
683.037858774312
 20
1715.105422863373
 30
0.0
 11
683.037858774312
 21
1713.662047190399
 31
0.0
  0
LINE
  5
291
330
1F
100
AcDbEntity
  8
0
  6
Continuous
 62
     2
100
AcDbLine
 10
683.2879267170614
 20
1711.662047190399
 30
0.0
 11
615.5306331103588
 21
1711.662047190399
 31
0.0
  0
LINE
  5
292
330
1F
100
AcDbEntity
  8
1
  6
DOT_CENTER
 62
     2
100
AcDbLine
 10
534.0756806647453
 20
1720.162047190399
 30
0.0
 11
523.9911342280672
 21
1720.162047190399
 31
0.0
  0
LINE
  5
293
330
1F
100
AcDbEntity
  8
1
  6
DOT_CENTER
 62
     2
100
AcDbLine
 10
529.0334074464062
 20
1725.204320408738
 30
0.0
 11
529.0334074464062
 21
1715.11977397206
 31
0.0
  0
LINE
  5
294
330
1F
100
AcDbEntity
  8
1
  6
DOT_CENTER
 62
     2
100
AcDbLine
 10
707.0801319926511
 20
1759.162047190399
 30
0.0
 11
696.995585555973
 21
1759.162047190399
 31
0.0
  0
LINE
  5
295
330
1F
100
AcDbEntity
  8
1
  6
DOT_CENTER
 62
     2
100
AcDbLine
 10
702.037858774312
 20
1764.204320408738
 30
0.0
 11
702.037858774312
 21
1754.11977397206
 31
0.0
  0
LINE
  5
296
330
1F
100
AcDbEntity
  8
1
  6
DOT_CENTER
 62
     2
100
AcDbLine
 10
555.8034074464066
 20
1723.662047190399
 30
0.0
 11
544.7634074464049
 21
1723.662047190399
 31
0.0
  0
LINE
  5
297
330
1F
100
AcDbEntity
  8
1
  6
DOT_CENTER
 62
     2
100
AcDbLine
 10
550.2834074464057
 20
1729.1820471904
 30
0.0
 11
550.2834074464057
 21
1718.142047190398
 31
0.0
  0
LINE
  5
298
330
1F
100
AcDbEntity
  8
1
  6
DOT_CENTER
 62
     2
100
AcDbLine
 10
555.8034074464066
 20
1755.662047190399
 30
0.0
 11
544.7634074464049
 21
1755.662047190399
 31
0.0
  0
LINE
  5
299
330
1F
100
AcDbEntity
  8
1
  6
DOT_CENTER
 62
     2
100
AcDbLine
 10
550.2834074464057
 20
1761.1820471904
 30
0.0
 11
550.2834074464057
 21
1750.142047190398
 31
0.0
  0
LINE
  5
29A
330
1F
100
AcDbEntity
  8
1
  6
DOT_CENTER
 62
     2
100
AcDbLine
 10
686.3078587743123
 20
1723.662047190399
 30
0.0
 11
675.2678587743118
 21
1723.662047190399
 31
0.0
  0
LINE
  5
29B
330
1F
100
AcDbEntity
  8
1
  6
DOT_CENTER
 62
     2
100
AcDbLine
 10
680.787858774312
 20
1729.1820471904
 30
0.0
 11
680.787858774312
 21
1718.142047190399
 31
0.0
  0
LINE
  5
29C
330
1F
100
AcDbEntity
  8
1
  6
DOT_CENTER
 62
     2
100
AcDbLine
 10
686.3078587743123
 20
1755.662047190399
 30
0.0
 11
675.2678587743118
 21
1755.662047190399
 31
0.0
  0
LINE
  5
29D
330
1F
100
AcDbEntity
  8
1
  6
DOT_CENTER
 62
     2
100
AcDbLine
 10
680.787858774312
 20
1761.1820471904
 30
0.0
 11
680.787858774312
 21
1750.142047190399
 31
0.0
  0
ARC
  5
2B2
330
1F
100
AcDbEntity
  8
1
  6
Continuous
 62
     2
100
AcDbCircle
 10
529.0334074464062
 20
1720.162047190399
 30
0.0
 40
3.0
100
AcDbArc
 50
0.0
 51
273.1761485697796
  0
ARC
  5
2B3
330
1F
100
AcDbEntity
  8
1
  6
Continuous
 62
     2
100
AcDbCircle
 10
702.037858774312
 20
1759.162047190399
 30
0.0
 40
3.0
100
AcDbArc
 50
0.0
 51
273.1761485697796
  0
ARC
  5
2B4
330
1F
100
AcDbEntity
  8
0
  6
Continuous
 62
     7
100
AcDbCircle
 10
683.037858774312
 20
1757.662047190399
 30
0.0
 40
8.000000000000501
100
AcDbArc
 50
38.62483287305225
 51
90.0
  0
ARC
  5
2B5
330
1F
100
AcDbEntity
  8
0
  6
Continuous
 62
     7
100
AcDbCircle
 10
548.0334074464057
 20
1757.662047190399
 30
0.0
 40
8.0
100
AcDbArc
 50
90.0
 51
141.3751671269437
  0
LWPOLYLINE
  5
2B6
330
1F
100
AcDbEntity
  8
Sichtbare_Kanten_TC_020513_DIN_
  6
Continuous
 62
     7
100
AcDbPolyline
 90
        2
 70
     0
 43
0.1
 10
539.3043875006314
 20
1797.022774678812
 42
0.36597738186304
 10
540.7834074464063
 20
1795.772774678812
 42
0.36597738186304
  0
LWPOLYLINE
  5
2B7
330
1F
100
AcDbEntity
  8
Sichtbare_Kanten_TC_020513_DIN_
  6
Continuous
 62
     7
100
AcDbPolyline
 90
        2
 70
     0
 43
0.1
 10
690.2878587743122
 20
1795.772774678812
 42
0.36597738186305
 10
691.7668787200872
 20
1797.022774678812
 42
0.36597738186305
  0
LWPOLYLINE
  5
2B8
330
1F
100
AcDbEntity
  8
Sichtbare_Kanten_TC_020513_DIN_
  6
Continuous
 62
     7
100
AcDbPolyline
 90
        2
 70
     0
 43
0.1
 10
540.7834074464062
 20
1819.567663832852
 42
1.0
 10
540.7834074464062
 20
1817.067663832852
 42
1.0
  0
LWPOLYLINE
  5
2B9
330
1F
100
AcDbEntity
  8
Sichtbare_Kanten_TC_020513_DIN_
  6
Continuous
 62
     7
100
AcDbPolyline
 90
        2
 70
     0
 43
0.1
 10
690.2878587743121
 20
1817.067663832852
 42
1.0
 10
690.2878587743121
 20
1819.567663832852
 42
1.0
  0
ARC
  5
2BA
330
1F
100
AcDbEntity
  8
0
  6
Continuous
 62
     7
100
AcDbCircle
 10
615.5306331103591
 20
1814.522774678812
 30
0.0
 40
8.0
100
AcDbArc
 50
180.0
 51
0.0
  0
ARC
  5
2BB
330
1F
100
AcDbEntity
  8
0
  6
Continuous
 62
     2
100
AcDbCircle
 10
615.5306331103591
 20
1814.527885524768
 30
0.0
 40
8.3830782309534
100
AcDbArc
 50
181.2557504004488
 51
358.7442495995512
  0
ARC
  5
2BC
330
1F
100
AcDbEntity
  8
0
  6
Continuous
 62
     7
100
AcDbCircle
 10
615.5306331103591
 20
1814.522774678812
 30
0.0
 40
10.51729889353161
100
AcDbArc
 50
196.5734546173264
 51
251.955175890459
  0
ARC
  5
2BD
330
1F
100
AcDbEntity
  8
0
  6
Continuous
 62
     7
100
AcDbCircle
 10
615.5306331103591
 20
1814.522774678812
 30
0.0
 40
10.51729889353191
100
AcDbArc
 50
288.0448241095433
 51
343.4265453826743
  0
ARC
  5
2BE
330
1F
100
AcDbEntity
  8
0
  6
Continuous
 62
     7
100
AcDbCircle
 10
702.0378587743122
 20
1798.522774678812
 30
0.0
 40
1.499999999999903
100
AcDbArc
 50
162.5676844849523
 51
180.0
  0
ARC
  5
2BF
330
1F
100
AcDbEntity
  8
0
  6
Continuous
 62
     7
100
AcDbCircle
 10
702.0378587743122
 20
1798.522774678812
 30
0.0
 40
1.5
100
AcDbArc
 50
0.0
 51
162.5676844849523
  0
ARC
  5
2C0
330
1F
100
AcDbEntity
  8
0
  6
Continuous
 62
     7
100
AcDbCircle
 10
710.7878587743122
 20
1816.022774678812
 30
0.0
 40
1.0
100
AcDbArc
 50
0.0
 51
90.0
  0
ARC
  5
2C1
330
1F
100
AcDbEntity
  8
0
  6
Continuous
 62
     7
100
AcDbCircle
 10
529.0334074464055
 20
1798.522774678812
 30
0.0
 40
1.5
100
AcDbArc
 50
0.0
 51
180.0
  0
ARC
  5
2C2
330
1F
100
AcDbEntity
  8
0
  6
Continuous
 62
     7
100
AcDbCircle
 10
520.2834074464059
 20
1816.022774678812
 30
0.0
 40
1.0
100
AcDbArc
 50
90.0
 51
180.0
  0
ARC
  5
2C3
330
1F
100
AcDbEntity
  8
0
  6
Continuous
 62
     7
100
AcDbCircle
 10
520.2834074464059
 20
1798.022774678812
 30
0.0
 40
1.0
100
AcDbArc
 50
180.0
 51
270.0
  0
ARC
  5
2C4
330
1F
100
AcDbEntity
  8
0
  6
Continuous
 62
     7
100
AcDbCircle
 10
710.7878587743122
 20
1798.022774678812
 30
0.0
 40
1.0
100
AcDbArc
 50
270.0
 51
0.0
  0
LWPOLYLINE
  5
2C5
330
1F
100
AcDbEntity
  8
Sichtbare_Kanten_TC_020513_DIN_
  6
Continuous
 62
     7
100
AcDbPolyline
 90
        2
 70
     0
 43
0.5
 10
418.5278510678547
 20
1819.572774678799
 42
1.0
 10
418.5278510678547
 20
1817.072774678799
 42
1.0
  0
LWPOLYLINE
  5
2C6
330
1F
100
AcDbEntity
  8
Sichtbare_Kanten_TC_020513_DIN_
  6
Continuous
 62
     7
100
AcDbPolyline
 90
        2
 70
     0
 43
0.5
 10
469.5278510678547
 20
1817.072774678799
 42
1.0
 10
469.5278510678547
 20
1819.572774678799
 42
1.0
  0
LWPOLYLINE
  5
2C7
330
1F
100
AcDbEntity
  8
Sichtbare_Kanten_TC_020513_DIN_
  6
Continuous
 62
     7
100
AcDbPolyline
 90
        2
 70
     0
 43
0.5
 10
469.5278510678547
 20
1795.572774678799
 42
0.36597738186304
 10
471.0068710136297
 20
1796.822774678799
 42
0.36597738186304
  0
LWPOLYLINE
  5
2C8
330
1F
100
AcDbEntity
  8
Sichtbare_Kanten_TC_020513_DIN_
  6
Continuous
 62
     7
100
AcDbPolyline
 90
        2
 70
     0
 43
0.5
 10
417.0488311220797
 20
1796.822774678799
 42
0.36597738186305
 10
418.5278510678547
 20
1795.572774678799
 42
0.36597738186305
  0
ARC
  5
2C9
330
1F
100
AcDbEntity
  8
0
  6
Continuous
 62
     7
100
AcDbCircle
 10
548.2834074464062
 20
1757.662047190399
 30
0.0
 40
9.335640909808944
100
AcDbArc
 50
90.0
 51
180.0
  0
ARC
  5
2CA
330
1F
100
AcDbEntity
  8
0
  6
Continuous
 62
     7
100
AcDbCircle
 10
548.2834074464062
 20
1721.662047190399
 30
0.0
 40
9.335640909809172
100
AcDbArc
 50
180.0
 51
270.0
  0
ARC
  5
2CB
330
1F
100
AcDbEntity
  8
0
  6
Continuous
 62
     7
100
AcDbCircle
 10
682.7878587743124
 20
1721.662047190399
 30
0.0
 40
9.335640909808035
100
AcDbArc
 50
270.0
 51
0.0
  0
ARC
  5
2CC
330
1F
100
AcDbEntity
  8
0
  6
Continuous
 62
     7
100
AcDbCircle
 10
682.7878587743124
 20
1757.662047190399
 30
0.0
 40
9.335640909808944
100
AcDbArc
 50
0.0
 51
90.0
  0
ARC
  5
2CD
330
1F
100
AcDbEntity
  8
1
  6
Continuous
 62
     2
100
AcDbCircle
 10
551.0334074464057
 20
1739.662047190399
 30
0.0
 40
2.0
100
AcDbArc
 50
90.0
 51
0.0
  0
ARC
  5
2CE
330
1F
100
AcDbEntity
  8
1
  6
Continuous
 62
     2
100
AcDbCircle
 10
680.037858774312
 20
1739.662047190399
 30
0.0
 40
2.0
100
AcDbArc
 50
90.0
 51
0.0
  0
ARC
  5
2CF
330
1F
100
AcDbEntity
  8
1
  6
Continuous
 62
     2
100
AcDbCircle
 10
667.787858774312
 20
1753.162047190399
 30
0.0
 40
1.500000000000909
100
AcDbArc
 50
89.99999999998263
 51
0.0
  0
ARC
  5
2D0
330
1F
100
AcDbEntity
  8
1
  6
Continuous
 62
     2
100
AcDbCircle
 10
667.787858774312
 20
1726.162047190399
 30
0.0
 40
1.5
100
AcDbArc
 50
89.99999999998263
 51
0.0
  0
ARC
  5
2D1
330
1F
100
AcDbEntity
  8
1
  6
Continuous
 62
     2
100
AcDbCircle
 10
563.2834074464057
 20
1753.162047190399
 30
0.0
 40
1.5
100
AcDbArc
 50
90.0
 51
0.0
  0
ARC
  5
2D2
330
1F
100
AcDbEntity
  8
1
  6
Continuous
 62
     2
100
AcDbCircle
 10
563.2834074464057
 20
1726.162047190399
 30
0.0
 40
1.5
100
AcDbArc
 50
90.0
 51
0.0
  0
ARC
  5
2D3
330
1F
100
AcDbEntity
  8
0
  6
Continuous
 62
     7
100
AcDbCircle
 10
565.6133420286186
 20
1761.162047190399
 30
0.0
 40
1.999999999999694
100
AcDbArc
 50
45.0
 51
90.0
  0
ARC
  5
2D4
330
1F
100
AcDbEntity
  8
0
  6
Continuous
 62
     7
100
AcDbCircle
 10
560.4534728641937
 20
1761.162047190399
 30
0.0
 40
2.0
100
AcDbArc
 50
90.0
 51
135.0
  0
ARC
  5
2D5
330
1F
100
AcDbEntity
  8
0
  6
Continuous
 62
     7
100
AcDbCircle
 10
526.2834074464062
 20
1723.162047190399
 30
0.0
 40
7.0
100
AcDbArc
 50
90.0
 51
180.0
  0
ARC
  5
2D6
330
1F
100
AcDbEntity
  8
0
  6
Continuous
 62
     7
100
AcDbCircle
 10
550.2834074464057
 20
1755.662047190399
 30
0.0
 40
6.5
100
AcDbArc
 50
90.0
 51
202.6198649480512
  0
ARC
  5
2D7
330
1F
100
AcDbEntity
  8
0
  6
Continuous
 62
     4
100
AcDbCircle
 10
550.2834074464057
 20
1755.662047190399
 30
0.0
 40
6.299282040812841
100
AcDbArc
 50
90.0
 51
202.9822472379535
  0
ARC
  5
2D8
330
1F
100
AcDbEntity
  8
0
  6
Continuous
 62
     7
100
AcDbCircle
 10
548.0334074464057
 20
1757.662047190399
 30
0.0
 40
6.556624327025929
100
AcDbArc
 50
90.0
 51
156.2206492391404
  0
ARC
  5
2D9
330
1F
100
AcDbEntity
  8
0
  6
Continuous
 62
     2
100
AcDbCircle
 10
547.7858395036563
 20
1758.664613512185
 30
0.0
 40
8.997434025535318
100
AcDbArc
 50
90.01592003344759
 51
178.5159200334523
  0
ARC
  5
2DA
330
1F
100
AcDbEntity
  8
0
  6
Continuous
 62
     2
100
AcDbCircle
 10
526.2834074464062
 20
1723.162047190399
 30
0.0
 40
6.0
100
AcDbArc
 50
90.0
 51
180.0
  0
ARC
  5
2DB
330
1F
100
AcDbEntity
  8
0
  6
Continuous
 62
     2
100
AcDbCircle
 10
530.2095147175745
 20
1737.162047190399
 30
0.0
 40
8.0
100
AcDbArc
 50
270.0
 51
358.4999999999989
  0
ARC
  5
2DC
330
1F
100
AcDbEntity
  8
0
  6
Continuous
 62
     7
100
AcDbCircle
 10
530.2095147175745
 20
1737.162047190399
 30
0.0
 40
7.0
100
AcDbArc
 50
270.0
 51
358.4999999999991
  0
ARC
  5
2DD
330
1F
100
AcDbEntity
  8
0
  6
Continuous
 62
     7
100
AcDbCircle
 10
550.2834074464057
 20
1723.662047190399
 30
0.0
 40
6.5
100
AcDbArc
 50
157.3801350519596
 51
270.0
  0
ARC
  5
2DE
330
1F
100
AcDbEntity
  8
0
  6
Continuous
 62
     4
100
AcDbCircle
 10
550.2834074464057
 20
1723.662047190399
 30
0.0
 40
6.299282040812687
100
AcDbArc
 50
157.0177527620408
 51
270.0
  0
ARC
  5
2DF
330
1F
100
AcDbEntity
  8
0
  6
Continuous
 62
     4
100
AcDbCircle
 10
563.0334074464057
 20
1752.912047190399
 30
0.0
 40
3.069814942325593
100
AcDbArc
 50
180.0
 51
0.0
  0
ARC
  5
2E0
330
1F
100
AcDbEntity
  8
0
  6
Continuous
 62
     7
100
AcDbCircle
 10
563.0334074464057
 20
1752.912047190399
 30
0.0
 40
3.0
100
AcDbArc
 50
180.0
 51
0.0
  0
ARC
  5
2E1
330
1F
100
AcDbEntity
  8
0
  6
Continuous
 62
     4
100
AcDbCircle
 10
563.0334074464057
 20
1726.412047190399
 30
0.0
 40
3.069814942326502
100
AcDbArc
 50
0.0
 51
180.0
  0
ARC
  5
2E2
330
1F
100
AcDbEntity
  8
0
  6
Continuous
 62
     7
100
AcDbCircle
 10
563.0334074464057
 20
1726.412047190399
 30
0.0
 40
3.0
100
AcDbArc
 50
0.0
 51
180.0
  0
ARC
  5
2E3
330
1F
100
AcDbEntity
  8
0
  6
Continuous
 62
     2
100
AcDbCircle
 10
526.2834074464062
 20
1717.662047190399
 30
0.0
 40
6.0
100
AcDbArc
 50
180.0
 51
270.0
  0
ARC
  5
2E4
330
1F
100
AcDbEntity
  8
0
  6
Continuous
 62
     7
100
AcDbCircle
 10
548.0334074464057
 20
1721.662047190399
 30
0.0
 40
6.556624327025927
100
AcDbArc
 50
203.7793507608541
 51
270.0
  0
ARC
  5
2E5
330
1F
100
AcDbEntity
  8
0
  6
Continuous
 62
     7
100
AcDbCircle
 10
548.0334074464057
 20
1721.662047190399
 30
0.0
 40
7.999999999999366
100
AcDbArc
 50
218.6248328730525
 51
270.0
  0
ARC
  5
2E6
330
1F
100
AcDbEntity
  8
0
  6
Continuous
 62
     7
100
AcDbCircle
 10
560.4534728641937
 20
1718.162047190399
 30
0.0
 40
1.999999999999212
100
AcDbArc
 50
224.9999999999862
 51
270.0
  0
ARC
  5
2E7
330
1F
100
AcDbEntity
  8
0
  6
Continuous
 62
     7
100
AcDbCircle
 10
565.6133420286186
 20
1718.162047190399
 30
0.0
 40
2.0
100
AcDbArc
 50
270.0
 51
315.0000000000138
  0
ARC
  5
2E8
330
1F
100
AcDbEntity
  8
0
  6
Continuous
 62
     7
100
AcDbCircle
 10
548.0634074464059
 20
1748.162047190399
 30
0.0
 40
1.0
100
AcDbArc
 50
90.0
 51
180.0
  0
ARC
  5
2E9
330
1F
100
AcDbEntity
  8
0
  6
Continuous
 62
     7
100
AcDbCircle
 10
548.0634074464059
 20
1731.162047190399
 30
0.0
 40
1.0
100
AcDbArc
 50
180.0
 51
270.0
  0
ARC
  5
2EA
330
1F
100
AcDbEntity
  8
0
  6
Continuous
 62
     7
100
AcDbCircle
 10
547.7858395036563
 20
1758.664613512185
 30
0.0
 40
9.99743399079428
100
AcDbArc
 50
90.01432762150873
 51
178.5143276215115
  0
ARC
  5
2EB
330
1F
100
AcDbEntity
  8
0
  6
Continuous
 62
     7
100
AcDbCircle
 10
526.2834074464062
 20
1717.662047190399
 30
0.0
 40
7.0
100
AcDbArc
 50
180.0
 51
270.0
  0
ARC
  5
2EC
330
1F
100
AcDbEntity
  8
0
  6
Continuous
 62
     7
100
AcDbCircle
 10
704.787858774312
 20
1761.662047190399
 30
0.0
 40
7.0
100
AcDbArc
 50
0.0
 51
90.0
  0
ARC
  5
2ED
330
1F
100
AcDbEntity
  8
0
  6
Continuous
 62
     7
100
AcDbCircle
 10
683.2904267170615
 20
1720.664613512185
 30
0.0
 40
10.00256663420575
100
AcDbArc
 50
269.9856797304616
 51
358.4856797304612
  0
ARC
  5
2EE
330
1F
100
AcDbEntity
  8
0
  6
Continuous
 62
     7
100
AcDbCircle
 10
682.987858774312
 20
1748.162047190399
 30
0.0
 40
1.0
100
AcDbArc
 50
0.0
 51
90.0
  0
ARC
  5
2EF
330
1F
100
AcDbEntity
  8
0
  6
Continuous
 62
     7
100
AcDbCircle
 10
682.987858774312
 20
1731.162047190399
 30
0.0
 40
1.0
100
AcDbArc
 50
270.0
 51
0.0
  0
ARC
  5
2F0
330
1F
100
AcDbEntity
  8
0
  6
Continuous
 62
     7
100
AcDbCircle
 10
665.4579241920995
 20
1761.162047190399
 30
0.0
 40
2.0
100
AcDbArc
 50
90.0
 51
135.0000000000092
  0
ARC
  5
2F1
330
1F
100
AcDbEntity
  8
0
  6
Continuous
 62
     7
100
AcDbCircle
 10
670.6177933565242
 20
1761.162047190399
 30
0.0
 40
1.999999999999855
100
AcDbArc
 50
44.9999999999954
 51
90.0
  0
ARC
  5
2F2
330
1F
100
AcDbEntity
  8
0
  6
Continuous
 62
     7
100
AcDbCircle
 10
683.037858774312
 20
1757.662047190399
 30
0.0
 40
6.556624327026202
100
AcDbArc
 50
23.77935076085958
 51
90.0
  0
ARC
  5
2F3
330
1F
100
AcDbEntity
  8
0
  6
Continuous
 62
     2
100
AcDbCircle
 10
704.787858774312
 20
1761.662047190399
 30
0.0
 40
6.0
100
AcDbArc
 50
0.0
 51
90.0
  0
ARC
  5
2F4
330
1F
100
AcDbEntity
  8
0
  6
Continuous
 62
     7
100
AcDbCircle
 10
668.037858774312
 20
1752.912047190399
 30
0.0
 40
3.0
100
AcDbArc
 50
180.0
 51
0.0
  0
ARC
  5
2F5
330
1F
100
AcDbEntity
  8
0
  6
Continuous
 62
     4
100
AcDbCircle
 10
668.037858774312
 20
1752.912047190399
 30
0.0
 40
3.069814942326047
100
AcDbArc
 50
180.0
 51
0.0
  0
ARC
  5
2F6
330
1F
100
AcDbEntity
  8
0
  6
Continuous
 62
     7
100
AcDbCircle
 10
668.037858774312
 20
1726.412047190399
 30
0.0
 40
3.0
100
AcDbArc
 50
0.0
 51
180.0
  0
ARC
  5
2F7
330
1F
100
AcDbEntity
  8
0
  6
Continuous
 62
     4
100
AcDbCircle
 10
668.037858774312
 20
1726.412047190399
 30
0.0
 40
3.069814942326047
100
AcDbArc
 50
0.0
 51
180.0
  0
ARC
  5
2F8
330
1F
100
AcDbEntity
  8
0
  6
Continuous
 62
     4
100
AcDbCircle
 10
680.787858774312
 20
1755.662047190399
 30
0.0
 40
6.299282040812421
100
AcDbArc
 50
337.0177527620465
 51
90.0
  0
ARC
  5
2F9
330
1F
100
AcDbEntity
  8
0
  6
Continuous
 62
     7
100
AcDbCircle
 10
680.787858774312
 20
1755.662047190399
 30
0.0
 40
6.5
100
AcDbArc
 50
337.3801350519595
 51
90.0
  0
ARC
  5
2FA
330
1F
100
AcDbEntity
  8
0
  6
Continuous
 62
     7
100
AcDbCircle
 10
700.7367515031436
 20
1742.290363279657
 30
0.0
 40
6.872820728722125
100
AcDbArc
 50
91.04212922611312
 51
179.542129226117
  0
ARC
  5
2FB
330
1F
100
AcDbEntity
  8
0
  6
Continuous
 62
     2
100
AcDbCircle
 10
700.7367515031436
 20
1742.290363279657
 30
0.0
 40
7.872676329599535
100
AcDbArc
 50
90.90976347779129
 51
179.4097634777943
  0
ARC
  5
2FC
330
1F
100
AcDbEntity
  8
0
  6
Continuous
 62
     2
100
AcDbCircle
 10
704.787858774312
 20
1756.162047190399
 30
0.0
 40
6.0
100
AcDbArc
 50
270.0
 51
0.0
  0
ARC
  5
2FD
330
1F
100
AcDbEntity
  8
0
  6
Continuous
 62
     2
100
AcDbCircle
 10
683.2904267170615
 20
1720.664613512185
 30
0.0
 40
9.00256666890917
100
AcDbArc
 50
269.984089043059
 51
358.4840890430589
  0
ARC
  5
2FE
330
1F
100
AcDbEntity
  8
0
  6
Continuous
 62
     7
100
AcDbCircle
 10
683.037858774312
 20
1721.662047190399
 30
0.0
 40
6.556624327026157
100
AcDbArc
 50
270.0
 51
336.2206492391459
  0
ARC
  5
2FF
330
1F
100
AcDbEntity
  8
0
  6
Continuous
 62
     7
100
AcDbCircle
 10
683.037858774312
 20
1721.662047190399
 30
0.0
 40
8.0
100
AcDbArc
 50
270.0
 51
321.3751671269516
  0
ARC
  5
300
330
1F
100
AcDbEntity
  8
0
  6
Continuous
 62
     4
100
AcDbCircle
 10
680.787858774312
 20
1723.662047190399
 30
0.0
 40
6.299282040812159
100
AcDbArc
 50
270.0
 51
22.98224723795921
  0
ARC
  5
301
330
1F
100
AcDbEntity
  8
0
  6
Continuous
 62
     7
100
AcDbCircle
 10
680.787858774312
 20
1723.662047190399
 30
0.0
 40
6.5
100
AcDbArc
 50
270.0
 51
22.61986494805523
  0
ARC
  5
302
330
1F
100
AcDbEntity
  8
0
  6
Continuous
 62
     7
100
AcDbCircle
 10
704.787858774312
 20
1756.162047190399
 30
0.0
 40
7.0
100
AcDbArc
 50
270.0
 51
0.0
  0
ARC
  5
303
330
1F
100
AcDbEntity
  8
0
  6
Continuous
 62
     7
100
AcDbCircle
 10
670.6177933565242
 20
1718.162047190399
 30
0.0
 40
2.0
100
AcDbArc
 50
270.0
 51
315.0000000000184
  0
ARC
  5
304
330
1F
100
AcDbEntity
  8
0
  6
Continuous
 62
     7
100
AcDbCircle
 10
665.4579241920995
 20
1718.162047190399
 30
0.0
 40
1.999999999999534
100
AcDbArc
 50
224.999999999977
 51
270.0
  0
CIRCLE
  5
305
330
1F
100
AcDbEntity
  8
0
  6
Continuous
 62
     7
100
AcDbCircle
 10
529.0334074464062
 20
1720.162047190399
 30
0.0
 40
2.765702925762753
  0
CIRCLE
  5
306
330
1F
100
AcDbEntity
  8
0
  6
Continuous
 62
     7
100
AcDbCircle
 10
702.037858774312
 20
1759.162047190399
 30
0.0
 40
2.765702925762753
  0
LWPOLYLINE
  5
307
330
1F
100
AcDbEntity
  8
Skizziergeometrie_TC_020513_DIN_
  6
Continuous
 62
     7
100
AcDbPolyline
 90
        2
 70
     1
 43
0.5
 10
535.93226904728
 20
1910.221297327548
 42
1.0
 10
542.43226904728
 20
1910.221297327548
 42
1.0
  0
LWPOLYLINE
  5
308
330
1F
100
AcDbEntity
  8
Skizziergeometrie_TC_020513_DIN_
  6
Continuous
 62
     7
100
AcDbPolyline
 90
        2
 70
     1
 43
0.5
 10
535.93226904728
 20
1878.221297327548
 42
1.0
 10
542.43226904728
 20
1878.221297327548
 42
1.0
  0
LWPOLYLINE
  5
309
330
1F
100
AcDbEntity
  8
Skizziergeometrie_TC_020513_DIN_
  6
Continuous
 62
     7
100
AcDbPolyline
 90
        2
 70
     1
 43
0.5
 10
405.9278177193737
 20
1878.221297327548
 42
1.0
 10
412.4278177193737
 20
1878.221297327548
 42
1.0
  0
LWPOLYLINE
  5
30A
330
1F
100
AcDbEntity
  8
Skizziergeometrie_TC_020513_DIN_
  6
Continuous
 62
     7
100
AcDbPolyline
 90
        2
 70
     1
 43
0.5
 10
405.9278177193737
 20
1910.221297327548
 42
1.0
 10
412.4278177193737
 20
1910.221297327548
 42
1.0
  0
CIRCLE
  5
30B
330
1F
100
AcDbEntity
  8
1
  6
Continuous
 62
     7
100
AcDbCircle
 10
667.787858774312
 20
1753.162047190399
 30
0.0
 40
1.300000000000864
  0
CIRCLE
  5
30C
330
1F
100
AcDbEntity
  8
1
  6
Continuous
 62
     7
100
AcDbCircle
 10
667.787858774312
 20
1753.162047190399
 30
0.0
 40
1.75
  0
CIRCLE
  5
30D
330
1F
100
AcDbEntity
  8
1
  6
Continuous
 62
     7
100
AcDbCircle
 10
667.787858774312
 20
1726.162047190399
 30
0.0
 40
1.75
  0
CIRCLE
  5
30E
330
1F
100
AcDbEntity
  8
1
  6
Continuous
 62
     7
100
AcDbCircle
 10
667.787858774312
 20
1726.162047190399
 30
0.0
 40
1.299999999999955
  0
CIRCLE
  5
30F
330
1F
100
AcDbEntity
  8
1
  6
Continuous
 62
     7
100
AcDbCircle
 10
563.2834074464057
 20
1753.162047190399
 30
0.0
 40
1.75
  0
CIRCLE
  5
310
330
1F
100
AcDbEntity
  8
1
  6
Continuous
 62
     7
100
AcDbCircle
 10
563.2834074464057
 20
1753.162047190399
 30
0.0
 40
1.299999999999045
  0
CIRCLE
  5
311
330
1F
100
AcDbEntity
  8
1
  6
Continuous
 62
     7
100
AcDbCircle
 10
563.2834074464057
 20
1726.162047190399
 30
0.0
 40
1.299999999999955
  0
CIRCLE
  5
312
330
1F
100
AcDbEntity
  8
1
  6
Continuous
 62
     7
100
AcDbCircle
 10
563.2834074464057
 20
1726.162047190399
 30
0.0
 40
1.75
  0
CIRCLE
  5
313
330
1F
100
AcDbEntity
  8
1
  6
Continuous
 62
     4
100
AcDbCircle
 10
553.2177279453166
 20
1733.542774453776
 30
0.0
 40
2.494936462245278
  0
CIRCLE
  5
314
330
1F
100
AcDbEntity
  8
1
  6
Continuous
 62
     4
100
AcDbCircle
 10
677.8535382754013
 20
1733.542774453776
 30
0.0
 40
2.49493646224505
  0
CIRCLE
  5
315
330
1F
100
AcDbEntity
  8
0
  6
Continuous
 62
     7
100
AcDbCircle
 10
550.2834074464057
 20
1723.662047190399
 30
0.0
 40
3.200000000000728
  0
CIRCLE
  5
316
330
1F
100
AcDbEntity
  8
0
  6
Continuous
 62
     7
100
AcDbCircle
 10
551.0334074464057
 20
1739.662047190399
 30
0.0
 40
1.650000000000091
  0
CIRCLE
  5
317
330
1F
100
AcDbEntity
  8
0
  6
Continuous
 62
     7
100
AcDbCircle
 10
550.2834074464057
 20
1755.662047190399
 30
0.0
 40
3.200000000000728
  0
CIRCLE
  5
318
330
1F
100
AcDbEntity
  8
0
  6
Continuous
 62
     7
100
AcDbCircle
 10
680.787858774312
 20
1723.662047190399
 30
0.0
 40
3.200000000000273
  0
CIRCLE
  5
319
330
1F
100
AcDbEntity
  8
0
  6
Continuous
 62
     7
100
AcDbCircle
 10
680.037858774312
 20
1739.662047190399
 30
0.0
 40
1.650000000000091
  0
CIRCLE
  5
31A
330
1F
100
AcDbEntity
  8
0
  6
Continuous
 62
     7
100
AcDbCircle
 10
680.787858774312
 20
1755.662047190399
 30
0.0
 40
3.200000000000273
  0
SPLINE
  5
31B
330
1F
100
AcDbEntity
  8
0
  6
Continuous
 62
     7
100
AcDbSpline
210
0.0
220
0.0
230
1.0
 70
     8
 71
     3
 72
     9
 73
     5
 74
     3
 42
0.000000001
 43
0.0000000001
 44
0.00000001
 40
0.0
 40
0.0
 40
0.0
 40
0.0
 40
3.26996842418099
 40
6.53993684836198
 40
6.53993684836198
 40
6.53993684836198
 40
6.53993684836198
 10
612.2727847382146
 20
1804.522774678812
 30
0.0
 10
613.3587341953106
 20
1804.382135526335
 30
0.0
 10
615.5306331103591
 20
1804.100857241231
 30
0.0
 10
617.7025320254083
 20
1804.382135526335
 30
0.0
 10
618.788481482504
 20
1804.522774678812
 30
0.0
 11
612.2727847382146
 21
1804.522774678812
 31
0.0
 11
615.5306331103593
 21
1804.241496373783
 31
0.0
 11
618.788481482504
 21
1804.522774678812
 31
0.0
  0
SPLINE
  5
31C
330
1F
100
AcDbEntity
  8
0
  6
Continuous
 62
     7
100
AcDbSpline
210
0.0
220
0.0
230
1.0
 70
     8
 71
     3
 72
    18
 73
    14
 74
    12
 42
0.000000001
 43
0.0000000001
 44
0.00000001
 40
0.0
 40
0.0
 40
0.0
 40
0.0
 40
0.0539148092731604
 40
0.1005525903707652
 40
0.1390360422700604
 40
0.1854898643598028
 40
0.2318056957635377
 40
0.276758720981275
 40
0.3305428630947818
 40
0.3768123962094974
 40
0.4230064539853862
 40
0.4288439669657907
 40
0.4346786979570891
 40
0.4346786979570891
 40
0.4346786979570891
 40
0.4346786979570891
 10
607.5306331103591
 20
1814.522774678812
 30
0.0
 10
607.5126523969903
 20
1814.522220404921
 30
0.0
 10
607.4791178767039
 20
1814.521186655009
 30
0.0
 10
607.4332576323086
 20
1814.513774331488
 30
0.0
 10
607.3906147631856
 20
1814.503406105416
 30
0.0
 10
607.3490918760342
 20
1814.489397354062
 30
0.0
 10
607.3070843315212
 20
1814.470718670609
 30
0.0
 10
607.2648534678192
 20
1814.447040925306
 30
0.0
 10
607.2252025975822
 20
1814.419215647422
 30
0.0
 10
607.1883467730461
 20
1814.387200672263
 30
0.0
 10
607.165767955692
 20
1814.36337234139
 30
0.0
 10
607.1532777421605
 20
1814.348673554782
 30
0.0
 10
607.1508045280704
 20
1814.345669938442
 30
0.0
 10
607.1495682212719
 20
1814.344168483655
 30
0.0
 11
607.5306331103591
 21
1814.522774678812
 31
0.0
 11
607.4767967178235
 21
1814.519867882072
 31
0.0
 11
607.4307148731035
 21
1814.512688311636
 31
0.0
 11
607.3933328438782
 21
1814.503547197183
 31
0.0
 11
607.3493120504611
 21
1814.488710507689
 31
0.0
 11
607.3069947562174
 21
1814.469884916845
 31
0.0
 11
607.2677868028428
 21
1814.44789603566
 31
0.0
 11
607.2237674294395
 21
1814.416992495887
 31
0.0
 11
607.1888445197467
 21
1814.386640228153
 31
0.0
 11
607.1570662150327
 21
1814.353113662052
 31
0.0
 11
607.1532886887361
 21
1814.348663171761
 31
0.0
 11
607.1495682212719
 21
1814.344168483655
 31
0.0
  0
SPLINE
  5
31D
330
1F
100
AcDbEntity
  8
0
  6
Continuous
 62
     7
100
AcDbSpline
210
0.0
220
0.0
230
1.0
 70
     8
 71
     3
 72
     9
 73
     5
 74
     3
 42
0.000000001
 43
0.0000000001
 44
0.00000001
 40
0.0
 40
0.0
 40
0.0
 40
0.0
 40
1.73923974939551
 40
3.293654660525454
 40
3.293654660525454
 40
3.293654660525454
 40
3.293654660525454
 10
605.450277163475
 20
1811.522774678812
 30
0.0
 10
605.7532865346728
 20
1812.017046059491
 30
0.0
 10
606.327105180505
 20
1812.953063796649
 30
0.0
 10
606.8858655724632
 20
1813.898144792685
 30
0.0
 10
607.1495682212719
 20
1814.344168483655
 30
0.0
 11
605.450277163475
 21
1811.522774678812
 31
0.0
 11
606.355106349477
 21
1813.008116070621
 31
0.0
 11
607.1495682212719
 21
1814.344168483655
 31
0.0
  0
SPLINE
  5
31E
330
1F
100
AcDbEntity
  8
0
  6
Continuous
 62
     7
100
AcDbSpline
210
0.0
220
0.0
230
1.0
 70
     8
 71
     3
 72
     9
 73
     5
 74
     3
 42
0.000000001
 43
0.0000000001
 44
0.00000001
 40
0.0
 40
0.0
 40
0.0
 40
0.0
 40
1.600866659027834
 40
3.296265162988439
 40
3.296265162988439
 40
3.296265162988439
 40
3.296265162988439
 10
623.9116979994467
 20
1814.344168483655
 30
0.0
 10
624.2145726517796
 20
1813.904197948796
 30
0.0
 10
624.8382068142942
 20
1812.998276424514
 30
0.0
 10
625.3485166799632
 20
1812.023922920385
 30
0.0
 10
625.6109890572436
 20
1811.522774678812
 30
0.0
 11
623.9116979994467
 21
1814.344168483655
 31
0.0
 11
624.7935925571458
 21
1813.008116070621
 31
0.0
 11
625.6109890572436
 21
1811.522774678812
 31
0.0
  0
SPLINE
  5
31F
330
1F
100
AcDbEntity
  8
0
  6
Continuous
 62
     7
100
AcDbSpline
210
0.0
220
0.0
230
1.0
 70
     8
 71
     3
 72
    18
 73
    14
 74
    12
 42
0.000000001
 43
0.0000000001
 44
0.00000001
 40
0.0
 40
0.0
 40
0.0
 40
0.0
 40
0.0058667948699314
 40
0.0117364024027412
 40
0.0539411296150469
 40
0.1042396747266993
 40
0.1489896466277212
 40
0.202916953336437
 40
0.2453767824271305
 40
0.2957851347836734
 40
0.3497672490694589
 40
0.3963754955360925
 40
0.434677247941938
 40
0.434677247941938
 40
0.434677247941938
 40
0.434677247941938
 10
623.9116979994467
 20
1814.344168483655
 30
0.0
 10
623.9104548721257
 20
1814.345678164074
 30
0.0
 10
623.9079680104599
 20
1814.348698239543
 30
0.0
 10
623.8963234288954
 20
1814.362398811885
 30
0.0
 10
623.8738347395339
 20
1814.38632739857
 30
0.0
 10
623.8393478925645
 20
1814.416522965
 30
0.0
 10
623.7989092535055
 20
1814.445455794144
 30
0.0
 10
623.7579931476763
 20
1814.468884010086
 30
0.0
 10
623.713310061488
 20
1814.488957134145
 30
0.0
 10
623.66689963393
 20
1814.504805226119
 30
0.0
 10
623.6177257440819
 20
1814.515934743119
 30
0.0
 10
623.5717129112845
 20
1814.521852737107
 30
0.0
 10
623.5434032266065
 20
1814.522488087774
 30
0.0
 10
623.5306331103591
 20
1814.522774678812
 30
0.0
 11
623.9116979994467
 21
1814.344168483655
 31
0.0
 11
623.9079569333552
 21
1814.348687744425
 31
0.0
 11
623.9041581828635
 21
1814.353162316685
 31
0.0
 11
623.8752487467165
 21
1814.383911036365
 31
0.0
 11
623.8374165985736
 21
1814.417057262747
 31
0.0
 11
623.8010257843526
 21
1814.443100854492
 31
0.0
 11
623.7542316000265
 21
1814.469904935753
 31
0.0
 11
623.715503373746
 21
1814.487310727821
 31
0.0
 11
623.6677949530069
 21
1814.503586741105
 31
0.0
 11
623.6151613748046
 21
1814.51557736849
 31
0.0
 11
623.5689067713907
 21
1814.52130801673
 31
0.0
 11
623.5306331103591
 21
1814.522774678812
 31
0.0
  0
SPLINE
  5
320
330
1F
100
AcDbEntity
  8
0
  6
Continuous
 62
     7
100
AcDbSpline
210
0.0
220
0.0
230
1.0
 70
     8
 71
     3
 72
    11
 73
     7
 74
     5
 42
0.000000001
 43
0.0000000001
 44
0.00000001
 40
0.0
 40
0.0
 40
0.0
 40
0.0
 40
0.9519823478152727
 40
1.823687782090032
 40
2.777016950321762
 40
3.63336652746348
 40
3.63336652746348
 40
3.63336652746348
 40
3.63336652746348
 10
696.8423443927464
 20
1811.522774678812
 30
0.0
 10
697.036005161004
 20
1811.774158266037
 30
0.0
 10
697.4069960609459
 20
1812.255727245931
 30
0.0
 10
697.9792984883711
 20
1812.98329245411
 30
0.0
 10
698.5379506706086
 20
1813.68104440186
 30
0.0
 10
698.9240481317825
 20
1814.144536997962
 30
0.0
 10
699.1067515031438
 20
1814.363864147173
 30
0.0
 11
696.8423443927464
 21
1811.522774678812
 31
0.0
 11
697.4246467658965
 21
1812.27589773429
 31
0.0
 11
697.9634177411878
 21
1812.961168630001
 31
0.0
 11
698.5606702461721
 21
1813.704220410579
 31
0.0
 11
699.1067515031438
 21
1814.363864147173
 31
0.0
  0
SPLINE
  5
321
330
1F
100
AcDbEntity
  8
0
  6
Continuous
 62
     7
100
AcDbSpline
210
0.0
220
0.0
230
1.0
 70
     8
 71
     3
 72
    13
 73
     9
 74
     7
 42
0.000000001
 43
0.0000000001
 44
0.00000001
 40
0.0
 40
0.0
 40
0.0
 40
0.0
 40
0.2609644160338694
 40
0.521940409465667
 40
0.7829364560355888
 40
1.043955655379204
 40
1.30499490397268
 40
1.566045727943946
 40
1.566045727943946
 40
1.566045727943946
 40
1.566045727943946
 10
692.609492903339
 20
1797.022774678812
 30
0.0
 10
692.696732684357
 20
1797.029407975452
 30
0.0
 10
692.8712161147758
 20
1797.042674877303
 30
0.0
 10
693.115014157952
 20
1797.147629686468
 30
0.0
 10
693.3247070735762
 20
1797.307332075959
 30
0.0
 10
693.4843483151316
 20
1797.517098265759
 30
0.0
 10
693.5892588440255
 20
1797.760973423841
 30
0.0
 10
693.6025196736459
 20
1797.935506303314
 30
0.0
 10
693.6091502283149
 20
1798.022774678812
 30
0.0
 11
692.609492903339
 21
1797.022774678812
 31
0.0
 11
692.8682231886402
 21
1797.056849110044
 31
0.0
 11
693.1093215658269
 21
1797.156749275027
 31
0.0
 11
693.3163571882382
 21
1797.315668086144
 31
0.0
 11
693.4752215418476
 21
1797.522774678811
 31
0.0
 11
693.5750874735393
 21
1797.763955702711
 31
0.0
 11
693.6091502283149
 21
1798.022774678812
 31
0.0
  0
SPLINE
  5
322
330
1F
100
AcDbEntity
  8
0
  6
Continuous
 62
     7
100
AcDbSpline
210
0.0
220
0.0
230
1.0
 70
     8
 71
     3
 72
    13
 73
     9
 74
     7
 42
0.000000001
 43
0.0000000001
 44
0.00000001
 40
0.0
 40
0.0
 40
0.0
 40
0.0
 40
0.2609644160335313
 40
0.5219404094656439
 40
0.7829364560355657
 40
1.043955655378905
 40
1.304994903972336
 40
1.566045727943617
 40
1.566045727943617
 40
1.566045727943617
 40
1.566045727943617
 10
692.0348426418415
 20
1797.022774678812
 30
0.0
 10
692.1220824228596
 20
1797.029407975453
 30
0.0
 10
692.2965658532783
 20
1797.042674877304
 30
0.0
 10
692.5403638964547
 20
1797.147629686469
 30
0.0
 10
692.7500568120782
 20
1797.307332075957
 30
0.0
 10
692.9096980536339
 20
1797.517098265761
 30
0.0
 10
693.0146085825274
 20
1797.760973423841
 30
0.0
 10
693.0278694121482
 20
1797.935506303315
 30
0.0
 10
693.034499966817
 20
1798.022774678812
 30
0.0
 11
692.0348426418415
 21
1797.022774678812
 31
0.0
 11
692.2935729271423
 21
1797.056849110044
 31
0.0
 11
692.5346713043294
 21
1797.156749275027
 31
0.0
 11
692.7417069267407
 21
1797.315668086144
 31
0.0
 11
692.9005712803497
 21
1797.522774678811
 31
0.0
 11
693.0004372120412
 21
1797.763955702711
 31
0.0
 11
693.034499966817
 21
1798.022774678812
 31
0.0
  0
SPLINE
  5
323
330
1F
100
AcDbEntity
  8
0
  6
Continuous
 62
     7
100
AcDbSpline
210
0.0
220
0.0
230
1.0
 70
     8
 71
     3
 72
    13
 73
     9
 74
     7
 42
0.000000001
 43
0.0000000001
 44
0.00000001
 40
0.0
 40
0.0
 40
0.0
 40
0.0
 40
0.2610508239701391
 40
0.5220900725634041
 40
0.7831092719070618
 40
1.044105318477025
 40
1.305081311909066
 40
1.566045727943107
 40
1.566045727943107
 40
1.566045727943107
 40
1.566045727943107
 10
693.6091502283149
 20
1816.022774678812
 30
0.0
 10
693.602519673646
 20
1816.110043054309
 30
0.0
 10
693.5892588440254
 20
1816.284575933782
 30
0.0
 10
693.4843483151318
 20
1816.528451091863
 30
0.0
 10
693.3247070735764
 20
1816.738217281666
 30
0.0
 10
693.1150141579519
 20
1816.897919671153
 30
0.0
 10
692.871216114776
 20
1817.00287448032
 30
0.0
 10
692.6967326843571
 20
1817.016141382171
 30
0.0
 10
692.609492903339
 20
1817.022774678812
 30
0.0
 11
693.6091502283149
 21
1816.022774678812
 31
0.0
 11
693.5750874735393
 21
1816.281593654912
 31
0.0
 11
693.4752215418476
 21
1816.522774678811
 31
0.0
 11
693.3163571882384
 21
1816.729881271479
 31
0.0
 11
693.1093215658269
 21
1816.888800082596
 31
0.0
 11
692.8682231886403
 21
1816.988700247579
 31
0.0
 11
692.609492903339
 21
1817.022774678812
 31
0.0
  0
SPLINE
  5
324
330
1F
100
AcDbEntity
  8
0
  6
Continuous
 62
     7
100
AcDbSpline
210
0.0
220
0.0
230
1.0
 70
     8
 71
     3
 72
    13
 73
     9
 74
     7
 42
0.000000001
 43
0.0000000001
 44
0.00000001
 40
0.0
 40
0.0
 40
0.0
 40
0.0
 40
0.2610508239701242
 40
0.5220900725633457
 40
0.7831092719070727
 40
1.044105318476766
 40
1.305081311909017
 40
1.566045727942382
 40
1.566045727942382
 40
1.566045727942382
 40
1.566045727942382
 10
693.034499966817
 20
1816.022774678812
 30
0.0
 10
693.0278694121479
 20
1816.110043054308
 30
0.0
 10
693.0146085825276
 20
1816.284575933782
 30
0.0
 10
692.909698053634
 20
1816.528451091863
 30
0.0
 10
692.7500568120784
 20
1816.738217281666
 30
0.0
 10
692.5403638964546
 20
1816.897919671154
 30
0.0
 10
692.2965658532785
 20
1817.00287448032
 30
0.0
 10
692.1220824228602
 20
1817.016141382172
 30
0.0
 10
692.0348426418419
 20
1817.022774678812
 30
0.0
 11
693.034499966817
 21
1816.022774678812
 31
0.0
 11
693.0004372120414
 21
1816.281593654912
 31
0.0
 11
692.9005712803499
 21
1816.522774678811
 31
0.0
 11
692.7417069267406
 21
1816.729881271479
 31
0.0
 11
692.5346713043294
 21
1816.888800082596
 31
0.0
 11
692.2935729271426
 21
1816.988700247579
 31
0.0
 11
692.0348426418419
 21
1817.022774678812
 31
0.0
  0
SPLINE
  5
325
330
1F
100
AcDbEntity
  8
0
  6
Continuous
 62
     4
100
AcDbSpline
210
0.0
220
0.0
230
1.0
 70
     8
 71
     3
 72
    13
 73
     9
 74
     7
 42
0.000000001
 43
0.0000000001
 44
0.00000001
 40
0.0
 40
0.0
 40
0.0
 40
0.0
 40
0.3915706974931752
 40
0.7831347109535359
 40
1.174694865990605
 40
1.566255021027133
 40
1.95781903448719
 40
2.349389731980801
 40
2.349389731980801
 40
2.349389731980801
 40
2.349389731980801
 10
567.6031652733285
 20
1762.004963570166
 30
0.0
 10
567.4722643303477
 20
1761.995014769449
 30
0.0
 10
567.2104646807527
 20
1761.975117323547
 30
0.0
 10
566.8446581864155
 20
1761.817700745918
 30
0.0
 10
566.5300224859235
 20
1761.578163472974
 30
0.0
 10
566.2904852129789
 20
1761.263527772483
 30
0.0
 10
566.1330686353513
 20
1760.897721278145
 30
0.0
 10
566.1131711894496
 20
1760.63592162855
 30
0.0
 10
566.1032223887322
 20
1760.505020685569
 30
0.0
 11
567.6031652733285
 21
1762.004963570166
 31
0.0
 11
567.2149443093341
 21
1761.953854904675
 31
0.0
 11
566.8531849960449
 21
1761.804013061949
 31
0.0
 11
566.5425388423315
 21
1761.565647116566
 31
0.0
 11
566.3041728969478
 21
1761.255000962853
 31
0.0
 11
566.1543310542232
 21
1760.893241649564
 31
0.0
 11
566.1032223887322
 21
1760.505020685569
 31
0.0
  0
SPLINE
  5
326
330
1F
100
AcDbEntity
  8
0
  6
Continuous
 62
     4
100
AcDbSpline
210
0.0
220
0.0
230
1.0
 70
     8
 71
     3
 72
    13
 73
     9
 74
     7
 42
0.000000001
 43
0.0000000001
 44
0.00000001
 40
0.0
 40
0.0
 40
0.0
 40
0.0
 40
0.3915706974938811
 40
0.7831347109538578
 40
1.174694865990428
 40
1.566255021026998
 40
1.957819034487272
 40
2.349389731980477
 40
2.349389731980477
 40
2.349389731980477
 40
2.349389731980477
 10
559.9635925040801
 20
1760.505020685569
 30
0.0
 10
559.9536437033627
 20
1760.63592162855
 30
0.0
 10
559.9337462574608
 20
1760.897721278145
 30
0.0
 10
559.7763296798325
 20
1761.263527772482
 30
0.0
 10
559.5367924068886
 20
1761.578163472974
 30
0.0
 10
559.2221567063966
 20
1761.817700745918
 30
0.0
 10
558.8563502120596
 20
1761.975117323547
 30
0.0
 10
558.5945505624645
 20
1761.995014769448
 30
0.0
 10
558.4636496194838
 20
1762.004963570166
 30
0.0
 11
559.9635925040801
 21
1760.505020685569
 31
0.0
 11
559.9124838385887
 21
1760.893241649564
 31
0.0
 11
559.7626419958639
 21
1761.255000962853
 31
0.0
 11
559.5242760504804
 21
1761.565647116566
 31
0.0
 11
559.2136298967674
 21
1761.804013061949
 31
0.0
 11
558.8518705834782
 21
1761.953854904674
 31
0.0
 11
558.4636496194838
 21
1762.004963570166
 31
0.0
  0
SPLINE
  5
327
330
1F
100
AcDbEntity
  8
0
  6
Continuous
 62
     7
100
AcDbSpline
210
0.0
220
0.0
230
1.0
 70
     8
 71
     3
 72
    13
 73
     9
 74
     7
 42
0.000000001
 43
0.0000000001
 44
0.00000001
 40
0.0
 40
0.0
 40
0.0
 40
0.0
 40
0.3908591196479193
 40
0.7817115756445006
 40
1.172560174368922
 40
1.563408751017488
 40
1.954261146679705
 40
2.345120183844343
 40
2.345120183844343
 40
2.345120183844343
 40
2.345120183844343
 10
560.1163126904179
 20
1760.657740871908
 30
0.0
 10
560.1064004516907
 20
1760.788402584148
 30
0.0
 10
560.0865761289349
 20
1761.049723779102
 30
0.0
 10
559.9297246424767
 20
1761.414958966372
 30
0.0
 10
559.6910063601197
 20
1761.729296698226
 30
0.0
 10
559.3773552988903
 20
1761.968916446533
 30
0.0
 10
559.0125719749178
 20
1762.126815835101
 30
0.0
 10
558.7513088150719
 20
1762.147390275039
 30
0.0
 10
558.6206761243137
 20
1762.157677575266
 30
0.0
 11
560.1163126904179
 21
1760.657740871908
 31
0.0
 11
560.0653896142536
 21
1761.04526853951
 31
0.0
 11
559.9160792765528
 21
1761.40647771347
 31
0.0
 11
559.6785176040337
 21
1761.716843756382
 31
0.0
 11
559.3688348928141
 21
1761.955295491451
 31
0.0
 11
559.0080559218833
 21
1762.105642194999
 31
0.0
 11
558.6206761243137
 21
1762.157677575266
 31
0.0
  0
SPLINE
  5
328
330
1F
100
AcDbEntity
  8
0
  6
Continuous
 62
     2
100
AcDbSpline
210
0.0
220
0.0
230
1.0
 70
     8
 71
     3
 72
    11
 73
     7
 74
     5
 42
0.000000001
 43
0.0000000001
 44
0.00000001
 40
0.0
 40
0.0
 40
0.0
 40
0.0
 40
0.0509151573061051
 40
0.102395084926431
 40
0.15361281197511
 40
0.2047575343983035
 40
0.2047575343983035
 40
0.2047575343983035
 40
0.2047575343983035
 10
544.4841254055931
 20
1753.202518365439
 30
0.0
 10
544.4674930955377
 20
1753.199141155645
 30
0.0
 10
544.4340439805176
 20
1753.192349289513
 30
0.0
 10
544.3838532518555
 20
1753.182211793361
 30
0.0
 10
544.3335806225283
 20
1753.172093340038
 30
0.0
 10
544.3001238856777
 20
1753.165394309466
 30
0.0
 10
544.2834074464062
 20
1753.162047190398
 30
0.0
 11
544.4841254055931
 21
1753.202518365439
 31
0.0
 11
544.4342267500964
 21
1753.192395252107
 31
0.0
 11
544.3837664273027
 21
1753.182200215462
 31
0.0
 11
544.3335550846199
 21
1753.172096917444
 31
0.0
 11
544.2834074464062
 21
1753.162047190398
 31
0.0
  0
SPLINE
  5
329
330
1F
100
AcDbEntity
  8
0
  6
Continuous
 62
     2
100
AcDbSpline
210
0.0
220
0.0
230
1.0
 70
     8
 71
     3
 72
    11
 73
     7
 74
     5
 42
0.000000001
 43
0.0000000001
 44
0.00000001
 40
0.0
 40
0.0
 40
0.0
 40
0.0
 40
0.0510680743343763
 40
0.1023950849857073
 40
0.1535138258452871
 40
0.2047575343985228
 40
0.2047575343985228
 40
0.2047575343985228
 40
0.2047575343985228
 10
544.4841254055931
 20
1726.12157601536
 30
0.0
 10
544.467443140543
 20
1726.124963358235
 30
0.0
 10
544.4339940214537
 20
1726.131755204492
 30
0.0
 10
544.3838356234596
 20
1726.14188611059
 30
0.0
 10
544.3336129720759
 20
1726.151994544483
 30
0.0
 10
544.3001562376668
 20
1726.158693587189
 30
0.0
 10
544.2834074464057
 20
1726.162047190399
 30
0.0
 11
544.4841254055931
 21
1726.12157601536
 31
0.0
 11
544.4340768738194
 21
1726.131729472108
 31
0.0
 11
544.3837664272445
 21
1726.141894165348
 31
0.0
 11
544.3336521334038
 21
1726.15197797518
 31
0.0
 11
544.2834074464057
 21
1726.162047190399
 31
0.0
  0
SPLINE
  5
32A
330
1F
100
AcDbEntity
  8
0
  6
Continuous
 62
     7
100
AcDbSpline
210
0.0
220
0.0
230
1.0
 70
     8
 71
     3
 72
    13
 73
     9
 74
     7
 42
0.000000001
 43
0.0000000001
 44
0.00000001
 40
0.0
 40
0.0
 40
0.0
 40
0.0
 40
0.3908590371646384
 40
0.7817114328269428
 40
1.172560009475322
 40
1.563408608199854
 40
1.954261064196435
 40
2.345120183844355
 40
2.345120183844355
 40
2.345120183844355
 40
2.345120183844355
 10
558.6206761243137
 20
1717.166416805533
 30
0.0
 10
558.751308815072
 20
1717.17670410576
 30
0.0
 10
559.0125719749179
 20
1717.197278545698
 30
0.0
 10
559.37735529889
 20
1717.355177934266
 30
0.0
 10
559.6910063601198
 20
1717.594797682573
 30
0.0
 10
559.9297246424767
 20
1717.909135414427
 30
0.0
 10
560.0865761289347
 20
1718.274370601696
 30
0.0
 10
560.1064004516905
 20
1718.535691796651
 30
0.0
 10
560.1163126904179
 20
1718.666353508891
 30
0.0
 11
558.6206761243137
 21
1717.166416805533
 31
0.0
 11
559.0080559218833
 21
1717.2184521858
 31
0.0
 11
559.3688348928141
 21
1717.368798889348
 31
0.0
 11
559.6785176040338
 21
1717.607250624417
 31
0.0
 11
559.9160792765528
 21
1717.917616667329
 31
0.0
 11
560.0653896142536
 21
1718.278825841289
 31
0.0
 11
560.1163126904179
 21
1718.666353508891
 31
0.0
  0
SPLINE
  5
32B
330
1F
100
AcDbEntity
  8
0
  6
Continuous
 62
     4
100
AcDbSpline
210
0.0
220
0.0
230
1.0
 70
     8
 71
     3
 72
    13
 73
     9
 74
     7
 42
0.000000001
 43
0.0000000001
 44
0.00000001
 40
0.0
 40
0.0
 40
0.0
 40
0.0
 40
0.3915706974929349
 40
0.7831347109532012
 40
1.174694865989549
 40
1.56625502102648
 40
1.957819034486648
 40
2.349389731979966
 40
2.349389731979966
 40
2.349389731979966
 40
2.349389731979966
 10
566.1032223887322
 20
1718.819073695229
 30
0.0
 10
566.1131711894498
 20
1718.688172752249
 30
0.0
 10
566.1330686353513
 20
1718.426373102654
 30
0.0
 10
566.2904852129788
 20
1718.060566608316
 30
0.0
 10
566.5300224859235
 20
1717.745930907824
 30
0.0
 10
566.8446581864157
 20
1717.506393634881
 30
0.0
 10
567.2104646807525
 20
1717.348977057252
 30
0.0
 10
567.4722643303477
 20
1717.32907961135
 30
0.0
 10
567.6031652733285
 20
1717.319130810633
 30
0.0
 11
566.1032223887322
 21
1718.819073695229
 31
0.0
 11
566.1543310542232
 21
1718.430852731235
 31
0.0
 11
566.3041728969478
 21
1718.069093417945
 31
0.0
 11
566.5425388423315
 21
1717.758447264233
 31
0.0
 11
566.8531849960449
 21
1717.520081318849
 31
0.0
 11
567.214944309334
 21
1717.370239476124
 31
0.0
 11
567.6031652733285
 21
1717.319130810633
 31
0.0
  0
SPLINE
  5
32C
330
1F
100
AcDbEntity
  8
0
  6
Continuous
 62
     7
100
AcDbSpline
210
0.0
220
0.0
230
1.0
 70
     8
 71
     3
 72
    13
 73
     9
 74
     7
 42
0.000000001
 43
0.0000000001
 44
0.00000001
 40
0.0
 40
0.0
 40
0.0
 40
0.0
 40
0.3908591196479341
 40
0.7817115756446456
 40
1.172560174368902
 40
1.56340875101728
 40
1.954261146679987
 40
2.345120183844708
 40
2.345120183844708
 40
2.345120183844708
 40
2.345120183844708
 10
565.950502202394
 20
1718.666353508891
 30
0.0
 10
565.9604144411213
 20
1718.535691796651
 30
0.0
 10
565.9802387638772
 20
1718.274370601697
 30
0.0
 10
566.1370902503359
 20
1717.909135414428
 30
0.0
 10
566.3758085326918
 20
1717.594797682573
 30
0.0
 10
566.6894595939222
 20
1717.355177934266
 30
0.0
 10
567.054242917894
 20
1717.197278545697
 30
0.0
 10
567.3155060777405
 20
1717.17670410576
 30
0.0
 10
567.4461387684986
 20
1717.166416805533
 30
0.0
 11
565.950502202394
 21
1718.666353508891
 31
0.0
 11
566.0014252785584
 21
1718.278825841289
 31
0.0
 11
566.1507356162596
 21
1717.917616667329
 31
0.0
 11
566.3882972887781
 21
1717.607250624417
 31
0.0
 11
566.6979799999978
 21
1717.368798889348
 31
0.0
 11
567.0587589709289
 21
1717.218452185799
 31
0.0
 11
567.4461387684986
 21
1717.166416805533
 31
0.0
  0
SPLINE
  5
32D
330
1F
100
AcDbEntity
  8
0
  6
Continuous
 62
     4
100
AcDbSpline
210
0.0
220
0.0
230
1.0
 70
     8
 71
     3
 72
    13
 73
     9
 74
     7
 42
0.000000001
 43
0.0000000001
 44
0.00000001
 40
0.0
 40
0.0
 40
0.0
 40
0.0
 40
0.3915706974932345
 40
0.7831347109534212
 40
1.174694865989715
 40
1.566255021026285
 40
1.957819034486681
 40
2.349389731979661
 40
2.349389731979661
 40
2.349389731979661
 40
2.349389731979661
 10
558.4636496194838
 20
1717.319130810633
 30
0.0
 10
558.5945505624645
 20
1717.329079611351
 30
0.0
 10
558.8563502120597
 20
1717.348977057252
 30
0.0
 10
559.2221567063965
 20
1717.506393634881
 30
0.0
 10
559.5367924068887
 20
1717.745930907824
 30
0.0
 10
559.7763296798328
 20
1718.060566608316
 30
0.0
 10
559.9337462574609
 20
1718.426373102654
 30
0.0
 10
559.9536437033624
 20
1718.688172752248
 30
0.0
 10
559.9635925040801
 20
1718.819073695229
 30
0.0
 11
558.4636496194838
 21
1717.319130810633
 31
0.0
 11
558.8518705834782
 21
1717.370239476125
 31
0.0
 11
559.2136298967674
 21
1717.520081318849
 31
0.0
 11
559.5242760504804
 21
1717.758447264232
 31
0.0
 11
559.7626419958639
 21
1718.069093417945
 31
0.0
 11
559.9124838385887
 21
1718.430852731235
 31
0.0
 11
559.9635925040801
 21
1718.819073695229
 31
0.0
  0
SPLINE
  5
32E
330
1F
100
AcDbEntity
  8
0
  6
Continuous
 62
     4
100
AcDbSpline
210
0.0
220
0.0
230
1.0
 70
     8
 71
     3
 72
    13
 73
     9
 74
     7
 42
0.000000001
 43
0.0000000001
 44
0.00000001
 40
0.0
 40
0.0
 40
0.0
 40
0.0
 40
0.3915706974932879
 40
0.7831347109535436
 40
1.174694865990252
 40
1.56625502102678
 40
1.957819034486924
 40
2.349389731980565
 40
2.349389731980565
 40
2.349389731980565
 40
2.349389731980565
 10
672.6076166012346
 20
1762.004963570166
 30
0.0
 10
672.4767156582541
 20
1761.995014769449
 30
0.0
 10
672.2149160086585
 20
1761.975117323547
 30
0.0
 10
671.849109514322
 20
1761.817700745918
 30
0.0
 10
671.5344738138299
 20
1761.578163472974
 30
0.0
 10
671.2949365408856
 20
1761.263527772483
 30
0.0
 10
671.1375199632573
 20
1760.897721278145
 30
0.0
 10
671.1176225173557
 20
1760.63592162855
 30
0.0
 10
671.1076737166383
 20
1760.505020685569
 30
0.0
 11
672.6076166012346
 21
1762.004963570166
 31
0.0
 11
672.21939563724
 21
1761.953854904675
 31
0.0
 11
671.8576363239509
 21
1761.804013061949
 31
0.0
 11
671.546990170238
 21
1761.565647116566
 31
0.0
 11
671.3086242248543
 21
1761.255000962853
 31
0.0
 11
671.1587823821295
 21
1760.893241649564
 31
0.0
 11
671.1076737166383
 21
1760.505020685569
 31
0.0
  0
SPLINE
  5
32F
330
1F
100
AcDbEntity
  8
0
  6
Continuous
 62
     7
100
AcDbSpline
210
0.0
220
0.0
230
1.0
 70
     8
 71
     3
 72
    13
 73
     9
 74
     7
 42
0.000000001
 43
0.0000000001
 44
0.00000001
 40
0.0
 40
0.0
 40
0.0
 40
0.0
 40
0.3908591196479489
 40
0.7817115756446169
 40
1.1725601743689
 40
1.563408751017279
 40
1.95426114667981
 40
2.345120183844284
 40
2.345120183844284
 40
2.345120183844284
 40
2.345120183844284
 10
665.1207640183242
 20
1760.657740871908
 30
0.0
 10
665.1108517795968
 20
1760.788402584148
 30
0.0
 10
665.091027456841
 20
1761.049723779102
 30
0.0
 10
664.9341759703824
 20
1761.414958966371
 30
0.0
 10
664.6954576880258
 20
1761.729296698226
 30
0.0
 10
664.381806626796
 20
1761.968916446533
 30
0.0
 10
664.0170233028235
 20
1762.1268158351
 30
0.0
 10
663.7557601429776
 20
1762.147390275039
 30
0.0
 10
663.6251274522195
 20
1762.157677575266
 30
0.0
 11
665.1207640183242
 21
1760.657740871908
 31
0.0
 11
665.0698409421597
 21
1761.04526853951
 31
0.0
 11
664.9205306044586
 21
1761.40647771347
 31
0.0
 11
664.6829689319397
 21
1761.716843756382
 31
0.0
 11
664.37328622072
 21
1761.955295491451
 31
0.0
 11
664.0125072497889
 21
1762.105642194999
 31
0.0
 11
663.6251274522195
 21
1762.157677575266
 31
0.0
  0
SPLINE
  5
330
330
1F
100
AcDbEntity
  8
0
  6
Continuous
 62
     4
100
AcDbSpline
210
0.0
220
0.0
230
1.0
 70
     8
 71
     3
 72
    13
 73
     9
 74
     7
 42
0.000000001
 43
0.0000000001
 44
0.00000001
 40
0.0
 40
0.0
 40
0.0
 40
0.0
 40
0.3915706974938515
 40
0.7831347109538281
 40
1.174694865990467
 40
1.566255021027128
 40
1.957819034487297
 40
2.349389731980614
 40
2.349389731980614
 40
2.349389731980614
 40
2.349389731980614
 10
664.9680438319862
 20
1760.505020685569
 30
0.0
 10
664.9580950312687
 20
1760.63592162855
 30
0.0
 10
664.9381975853673
 20
1760.897721278145
 30
0.0
 10
664.7807810077387
 20
1761.263527772482
 30
0.0
 10
664.5412437347946
 20
1761.578163472974
 30
0.0
 10
664.2266080343027
 20
1761.817700745918
 30
0.0
 10
663.8608015399659
 20
1761.975117323547
 30
0.0
 10
663.5990018903705
 20
1761.995014769448
 30
0.0
 10
663.4681009473899
 20
1762.004963570166
 30
0.0
 11
664.9680438319862
 21
1760.505020685569
 31
0.0
 11
664.916935166495
 21
1760.893241649564
 31
0.0
 11
664.7670933237702
 21
1761.255000962853
 31
0.0
 11
664.5287273783865
 21
1761.565647116566
 31
0.0
 11
664.2180812246735
 21
1761.804013061949
 31
0.0
 11
663.8563219113844
 21
1761.953854904674
 31
0.0
 11
663.4681009473899
 21
1762.004963570166
 31
0.0
  0
SPLINE
  5
331
330
1F
100
AcDbEntity
  8
0
  6
Continuous
 62
     7
100
AcDbSpline
210
0.0
220
0.0
230
1.0
 70
     8
 71
     3
 72
    13
 73
     9
 74
     7
 42
0.000000001
 43
0.0000000001
 44
0.00000001
 40
0.0
 40
0.0
 40
0.0
 40
0.0
 40
0.390859037164556
 40
0.7817114328269652
 40
1.172560009475205
 40
1.563408608199738
 40
1.954261064196406
 40
2.345120183844325
 40
2.345120183844325
 40
2.345120183844325
 40
2.345120183844325
 10
672.4505900964042
 20
1762.157677575266
 30
0.0
 10
672.319957405646
 20
1762.147390275039
 30
0.0
 10
672.0586942458001
 20
1762.126815835101
 30
0.0
 10
671.6939109218281
 20
1761.968916446532
 30
0.0
 10
671.3802598605981
 20
1761.729296698226
 30
0.0
 10
671.1415415782412
 20
1761.414958966372
 30
0.0
 10
670.9846900917828
 20
1761.049723779102
 30
0.0
 10
670.9648657690273
 20
1760.788402584148
 30
0.0
 10
670.9549535302998
 20
1760.657740871908
 30
0.0
 11
672.4505900964042
 21
1762.157677575266
 31
0.0
 11
672.0632102988347
 21
1762.105642194999
 31
0.0
 11
671.7024313279038
 21
1761.955295491451
 31
0.0
 11
671.3927486166841
 21
1761.716843756382
 31
0.0
 11
671.1551869441652
 21
1761.40647771347
 31
0.0
 11
671.0058766064641
 21
1761.04526853951
 31
0.0
 11
670.9549535302998
 21
1760.657740871908
 31
0.0
  0
SPLINE
  5
332
330
1F
100
AcDbEntity
  8
0
  6
Continuous
 62
     2
100
AcDbSpline
210
0.0
220
0.0
230
1.0
 70
     8
 71
     3
 72
    11
 73
     7
 74
     5
 42
0.000000001
 43
0.0000000001
 44
0.00000001
 40
0.0
 40
0.0
 40
0.0
 40
0.0
 40
0.0510680743347137
 40
0.1023950849861088
 40
0.1535138258450879
 40
0.204757534398658
 40
0.204757534398658
 40
0.204757534398658
 40
0.204757534398658
 10
686.5871408151246
 20
1753.202518365439
 30
0.0
 10
686.6038230801748
 20
1753.199131022564
 30
0.0
 10
686.6372721992635
 20
1753.192339176305
 30
0.0
 10
686.6874305972586
 20
1753.18220827021
 30
0.0
 10
686.7376532486413
 20
1753.172099836315
 30
0.0
 10
686.7711099830509
 20
1753.165400793609
 30
0.0
 10
686.787858774312
 20
1753.162047190399
 30
0.0
 11
686.5871408151246
 21
1753.202518365439
 31
0.0
 11
686.6371893468984
 21
1753.19236490869
 31
0.0
 11
686.6874997934736
 21
1753.182200215451
 31
0.0
 11
686.7376140873135
 21
1753.172116405618
 31
0.0
 11
686.787858774312
 21
1753.162047190399
 31
0.0
  0
SPLINE
  5
333
330
1F
100
AcDbEntity
  8
0
  6
Continuous
 62
     2
100
AcDbSpline
210
0.0
220
0.0
230
1.0
 70
     8
 71
     3
 72
    11
 73
     7
 74
     5
 42
0.000000001
 43
0.0000000001
 44
0.00000001
 40
0.0
 40
0.0
 40
0.0
 40
0.0
 40
0.0509151573063941
 40
0.1023950849268765
 40
0.1536128119749751
 40
0.2047575343987486
 40
0.2047575343987486
 40
0.2047575343987486
 40
0.2047575343987486
 10
686.5871408151246
 20
1726.12157601536
 30
0.0
 10
686.6037731251799
 20
1726.124953225154
 30
0.0
 10
686.6372222402006
 20
1726.131745091286
 30
0.0
 10
686.6874129688621
 20
1726.141882587438
 30
0.0
 10
686.73768559819
 20
1726.152001040759
 30
0.0
 10
686.7711423350405
 20
1726.158700071333
 30
0.0
 10
686.787858774312
 20
1726.162047190401
 30
0.0
 11
686.5871408151246
 21
1726.12157601536
 31
0.0
 11
686.6370394706216
 21
1726.131699128691
 31
0.0
 11
686.6874997934154
 21
1726.141894165337
 31
0.0
 11
686.7377111360978
 21
1726.151997463354
 31
0.0
 11
686.787858774312
 21
1726.162047190401
 31
0.0
  0
SPLINE
  5
334
330
1F
100
AcDbEntity
  8
0
  6
Continuous
 62
     7
100
AcDbSpline
210
0.0
220
0.0
230
1.0
 70
     8
 71
     3
 72
    13
 73
     9
 74
     7
 42
0.000000001
 43
0.0000000001
 44
0.00000001
 40
0.0
 40
0.0
 40
0.0
 40
0.0
 40
0.3908591196479341
 40
0.7817115756445587
 40
1.172560174369091
 40
1.56340875101747
 40
1.954261146679967
 40
2.345120183844462
 40
2.345120183844462
 40
2.345120183844462
 40
2.345120183844462
 10
670.9549535302998
 20
1718.666353508891
 30
0.0
 10
670.964865769027
 20
1718.535691796651
 30
0.0
 10
670.9846900917831
 20
1718.274370601697
 30
0.0
 10
671.1415415782411
 20
1717.909135414428
 30
0.0
 10
671.3802598605982
 20
1717.594797682573
 30
0.0
 10
671.6939109218279
 20
1717.355177934266
 30
0.0
 10
672.0586942458
 20
1717.197278545697
 30
0.0
 10
672.3199574056459
 20
1717.17670410576
 30
0.0
 10
672.4505900964042
 20
1717.166416805533
 30
0.0
 11
670.9549535302998
 21
1718.666353508891
 31
0.0
 11
671.0058766064642
 21
1718.278825841289
 31
0.0
 11
671.1551869441652
 21
1717.917616667329
 31
0.0
 11
671.3927486166841
 21
1717.607250624417
 31
0.0
 11
671.7024313279038
 21
1717.368798889348
 31
0.0
 11
672.0632102988347
 21
1717.218452185799
 31
0.0
 11
672.4505900964042
 21
1717.166416805533
 31
0.0
  0
SPLINE
  5
335
330
1F
100
AcDbEntity
  8
0
  6
Continuous
 62
     4
100
AcDbSpline
210
0.0
220
0.0
230
1.0
 70
     8
 71
     3
 72
    13
 73
     9
 74
     7
 42
0.000000001
 43
0.0000000001
 44
0.00000001
 40
0.0
 40
0.0
 40
0.0
 40
0.0
 40
0.3915706974929497
 40
0.7831347109533464
 40
1.174694865989625
 40
1.566255021026285
 40
1.957819034486454
 40
2.349389731979771
 40
2.349389731979771
 40
2.349389731979771
 40
2.349389731979771
 10
671.1076737166383
 20
1718.819073695229
 30
0.0
 10
671.1176225173558
 20
1718.688172752248
 30
0.0
 10
671.1375199632572
 20
1718.426373102653
 30
0.0
 10
671.2949365408854
 20
1718.060566608317
 30
0.0
 10
671.5344738138299
 20
1717.745930907824
 30
0.0
 10
671.8491095143216
 20
1717.506393634881
 30
0.0
 10
672.2149160086587
 20
1717.348977057252
 30
0.0
 10
672.4767156582539
 20
1717.32907961135
 30
0.0
 10
672.6076166012346
 20
1717.319130810633
 30
0.0
 11
671.1076737166383
 21
1718.819073695229
 31
0.0
 11
671.1587823821294
 21
1718.430852731235
 31
0.0
 11
671.3086242248543
 21
1718.069093417945
 31
0.0
 11
671.5469901702379
 21
1717.758447264233
 31
0.0
 11
671.8576363239509
 21
1717.520081318849
 31
0.0
 11
672.21939563724
 21
1717.370239476124
 31
0.0
 11
672.6076166012346
 21
1717.319130810633
 31
0.0
  0
SPLINE
  5
336
330
1F
100
AcDbEntity
  8
0
  6
Continuous
 62
     7
100
AcDbSpline
210
0.0
220
0.0
230
1.0
 70
     8
 71
     3
 72
    13
 73
     9
 74
     7
 42
0.000000001
 43
0.0000000001
 44
0.00000001
 40
0.0
 40
0.0
 40
0.0
 40
0.0
 40
0.3908590371644131
 40
0.781711432827032
 40
1.172560009475501
 40
1.563408608199895
 40
1.954261064196563
 40
2.345120183844512
 40
2.345120183844512
 40
2.345120183844512
 40
2.345120183844512
 10
663.6251274522195
 20
1717.166416805533
 30
0.0
 10
663.7557601429778
 20
1717.17670410576
 30
0.0
 10
664.0170233028236
 20
1717.197278545697
 30
0.0
 10
664.3818066267958
 20
1717.355177934266
 30
0.0
 10
664.695457688026
 20
1717.594797682573
 30
0.0
 10
664.9341759703824
 20
1717.909135414427
 30
0.0
 10
665.091027456841
 20
1718.274370601697
 30
0.0
 10
665.1108517795967
 20
1718.535691796651
 30
0.0
 10
665.1207640183242
 20
1718.666353508891
 30
0.0
 11
663.6251274522195
 21
1717.166416805533
 31
0.0
 11
664.0125072497889
 21
1717.2184521858
 31
0.0
 11
664.37328622072
 21
1717.368798889348
 31
0.0
 11
664.6829689319399
 21
1717.607250624417
 31
0.0
 11
664.9205306044586
 21
1717.917616667329
 31
0.0
 11
665.0698409421597
 21
1718.278825841289
 31
0.0
 11
665.1207640183242
 21
1718.666353508891
 31
0.0
  0
SPLINE
  5
337
330
1F
100
AcDbEntity
  8
0
  6
Continuous
 62
     4
100
AcDbSpline
210
0.0
220
0.0
230
1.0
 70
     8
 71
     3
 72
    13
 73
     9
 74
     7
 42
0.000000001
 43
0.0000000001
 44
0.00000001
 40
0.0
 40
0.0
 40
0.0
 40
0.0
 40
0.3915706974933472
 40
0.7831347109534289
 40
1.174694865989722
 40
1.566255021026431
 40
1.957819034486828
 40
2.349389731979777
 40
2.349389731979777
 40
2.349389731979777
 40
2.349389731979777
 10
663.4681009473899
 20
1717.319130810633
 30
0.0
 10
663.5990018903706
 20
1717.329079611351
 30
0.0
 10
663.8608015399658
 20
1717.348977057253
 30
0.0
 10
664.2266080343026
 20
1717.50639363488
 30
0.0
 10
664.5412437347949
 20
1717.745930907824
 30
0.0
 10
664.7807810077388
 20
1718.060566608316
 30
0.0
 10
664.9381975853671
 20
1718.426373102654
 30
0.0
 10
664.9580950312686
 20
1718.688172752248
 30
0.0
 10
664.9680438319862
 20
1718.819073695229
 30
0.0
 11
663.4681009473899
 21
1717.319130810633
 31
0.0
 11
663.8563219113844
 21
1717.370239476125
 31
0.0
 11
664.2180812246735
 21
1717.520081318849
 31
0.0
 11
664.5287273783864
 21
1717.758447264232
 31
0.0
 11
664.7670933237702
 21
1718.069093417945
 31
0.0
 11
664.916935166495
 21
1718.430852731235
 31
0.0
 11
664.9680438319862
 21
1718.819073695229
 31
0.0
  0
ARC
  5
338
330
1F
100
AcDbEntity
  8
1
  6
Continuous
 62
     7
100
AcDbCircle
 10
567.450502202394
 20
1760.662047190399
 30
0.0
 40
1.5
100
AcDbArc
 50
90.00000000001738
 51
180.0
  0
LWPOLYLINE
  5
339
330
1F
100
AcDbEntity
  8
0
  6
Continuous
 62
     7
 60
     1
100
AcDbPolyline
 90
        2
 70
     0
 43
0.0
 10
6825.440712612469
 20
5702.310737681573
 10
6861.524416923219
 20
5678.869909153435
  0
LWPOLYLINE
  5
33A
330
1F
100
AcDbEntity
  8
0
  6
Continuous
 62
     7
 60
     1
100
AcDbPolyline
 90
        2
 70
     0
 43
0.0
 10
6811.856544669568
 20
5375.933454989994
 10
6847.940248980318
 20
5352.492626461853
  0
LWPOLYLINE
  5
33B
330
1F
100
AcDbEntity
  8
0
  6
Continuous
 62
     7
 60
     1
100
AcDbPolyline
 90
        2
 70
     0
 43
0.0
 10
-3435.606729759058
 20
776.5797763577173
 10
-3399.523025448311
 20
786.0389478295772
  0
LWPOLYLINE
  5
33C
330
1F
100
AcDbEntity
  8
0
  6
Continuous
 62
     7
 60
     1
100
AcDbPolyline
 90
        2
 70
     0
 43
0.0
 10
-3720.60672975906
 20
776.5797763577173
 10
-3684.52302544832
 20
758.138947829587
  0
LWPOLYLINE
  5
33D
330
1F
100
AcDbEntity
  8
0
  6
Continuous
 62
     7
 60
     1
100
AcDbPolyline
 90
        2
 70
     0
 43
0.0
 10
-3837.000948741351
 20
776.5797763577173
 10
-3800.9172444306
 20
753.138947829587
  0
LWPOLYLINE
  5
33E
330
1F
100
AcDbEntity
  8
0
  6
Continuous
 62
     7
 60
     1
100
AcDbPolyline
 90
        2
 70
     0
 43
0.0
 10
-3435.606729759058
 20
776.5797763577173
 10
-3399.523025448311
 20
786.0389478295772
  0
LWPOLYLINE
  5
33F
330
1F
100
AcDbEntity
  8
0
  6
Continuous
 62
     7
 60
     1
100
AcDbPolyline
 90
        2
 70
     0
 43
0.0
 10
-3720.60672975906
 20
776.5797763577173
 10
-3684.52302544832
 20
758.138947829587
  0
LWPOLYLINE
  5
340
330
1F
100
AcDbEntity
  8
0
  6
Continuous
 62
     7
 60
     1
100
AcDbPolyline
 90
        2
 70
     0
 43
0.0
 10
-3837.000948741351
 20
776.5797763577173
 10
-3800.9172444306
 20
753.138947829587
  0
LWPOLYLINE
  5
341
330
1F
100
AcDbEntity
  8
0
  6
Continuous
 62
     7
 60
     1
100
AcDbPolyline
 90
        2
 70
     0
 43
0.0
 10
-3441.834149113898
 20
780.7542219222332
 10
-3405.75044480315
 20
790.2133933940931
  0
LWPOLYLINE
  5
342
330
1F
100
AcDbEntity
  8
0
  6
Continuous
 62
     7
 60
     1
100
AcDbPolyline
 90
        2
 70
     0
 43
0.0
 10
-3726.8341491139
 20
780.7542219222332
 10
-3690.750444803159
 20
762.3133933941028
  0
LWPOLYLINE
  5
343
330
1F
100
AcDbEntity
  8
0
  6
Continuous
 62
     7
 60
     1
100
AcDbPolyline
 90
        2
 70
     0
 43
0.0
 10
-3843.22836809619
 20
780.7542219222332
 10
-3807.144663785439
 20
757.3133933941028
  0
LWPOLYLINE
  5
344
330
1F
100
AcDbEntity
  8
0
  6
Continuous
 62
     7
 60
     1
100
AcDbPolyline
 90
        2
 70
     0
 43
0.0
 10
-3677.110816204555
 20
1224.967642097348
 10
-3641.027111893807
 20
1234.426813569208
  0
LWPOLYLINE
  5
345
330
1F
100
AcDbEntity
  8
0
  6
Continuous
 62
     7
 60
     1
100
AcDbPolyline
 90
        2
 70
     0
 43
0.0
 10
-3962.110816204556
 20
1224.967642097348
 10
-3926.027111893816
 20
1206.526813569218
  0
LWPOLYLINE
  5
346
330
1F
100
AcDbEntity
  8
0
  6
Continuous
 62
     7
 60
     1
100
AcDbPolyline
 90
        2
 70
     0
 43
0.0
 10
-4078.505035186847
 20
1224.967642097348
 10
-4042.421330876096
 20
1201.526813569218
  0
LWPOLYLINE
  5
347
330
1F
100
AcDbEntity
  8
0
  6
Continuous
 62
     7
 60
     1
100
AcDbPolyline
 90
        2
 70
     0
 43
0.0
 10
-3677.110816204555
 20
1224.967642097348
 10
-3641.027111893807
 20
1234.426813569208
  0
LWPOLYLINE
  5
348
330
1F
100
AcDbEntity
  8
0
  6
Continuous
 62
     7
 60
     1
100
AcDbPolyline
 90
        2
 70
     0
 43
0.0
 10
-3962.110816204556
 20
1224.967642097348
 10
-3926.027111893816
 20
1206.526813569218
  0
LWPOLYLINE
  5
349
330
1F
100
AcDbEntity
  8
0
  6
Continuous
 62
     7
 60
     1
100
AcDbPolyline
 90
        2
 70
     0
 43
0.0
 10
-4078.505035186847
 20
1224.967642097348
 10
-4042.421330876096
 20
1201.526813569218
  0
LWPOLYLINE
  5
34A
330
1F
100
AcDbEntity
  8
0
  6
Continuous
 62
     7
 60
     1
100
AcDbPolyline
 90
        2
 70
     0
 43
0.0
 10
-3683.338235559395
 20
1229.142087661864
 10
-3647.254531248645
 20
1238.601259133724
  0
LWPOLYLINE
  5
34B
330
1F
100
AcDbEntity
  8
0
  6
Continuous
 62
     7
 60
     1
100
AcDbPolyline
 90
        2
 70
     0
 43
0.0
 10
-3968.338235559395
 20
1229.142087661864
 10
-3932.254531248655
 20
1210.701259133734
  0
LWPOLYLINE
  5
34C
330
1F
100
AcDbEntity
  8
0
  6
Continuous
 62
     7
 60
     1
100
AcDbPolyline
 90
        2
 70
     0
 43
0.0
 10
-4084.732454541686
 20
1229.142087661864
 10
-4048.648750230935
 20
1205.701259133734
  0
MTEXT
  5
34D
330
1F
100
AcDbEntity
  8
1
 62
     7
100
AcDbMText
 10
600.4862157579992
 20
1663.608244195966
 30
0.0
 40
3.0
 41
0.0
 71
     4
 72
     1
  1
G.Merafina
  7
CONVERTER_11
 73
     1
 44
1.32052821128451
  0
MTEXT
  5
34E
330
1F
100
AcDbEntity
  8
1
 62
     7
100
AcDbMText
 10
734.7881739353959
 20
1664.97067716803
 30
0.0
 40
4.5
 41
0.0
 71
     5
 72
     1
  1
1:1
  7
CONVERTER_11
 73
     1
 44
1.32052821128451
  0
MTEXT
  5
34F
330
1F
100
AcDbEntity
  8
1
 62
     7
100
AcDbMText
 10
601.5196626409713
 20
1671.584238944852
 30
0.0
 40
3.0
 41
0.0
 71
     4
 72
     1
  1
28/01/13
  7
CONVERTER_11
 73
     1
 44
1.32052821128451
  0
MTEXT
  5
350
330
1F
100
AcDbEntity
  8
1
 62
     7
100
AcDbMText
 10
621.8723642053633
 20
1668.249398326518
 30
0.0
 40
4.5
 41
0.0
 71
     4
 72
     1
  1
CGI 24\Pbulkhead housing IP68  (for screw type)
  7
CONVERTER_11
 73
     1
 44
0.90036014405762
  0
MTEXT
  5
352
330
1F
100
AcDbEntity
  8
Symbole_TC_020513_DIN_
 62
     7
100
AcDbMText
 10
426.0618443430781
 20
1902.162103474351
 30
0.0
 40
5.0
 41
0.0
 71
     1
 72
     1
  1
Panel cut out
  7
CONVERTER_12
 73
     1
 44
0.75727272727273
  0
MTEXT
  5
354
330
1F
100
AcDbEntity
  8
1
 62
     4
100
AcDbMText
 10
657.5378587743122
 20
1808.022774678804
 30
0.0
 40
3.0
 41
0.0
 71
     4
 72
     1
  1
IP68
  7
CONVERTER_13
 73
     1
 44
1.32052821128451
  0
DIMENSION
  5
35F
330
1F
100
AcDbEntity
  8
1
100
AcDbDimension
  2
*D4
 10
416.6778177193738
 20
1864.03138204688
 30
0.0
 11
474.1800433833269
 21
1867.53138204688
 31
0.0
 70
    32
  1
<>
 71
     5
 42
-1.0
 53
0.00013888888889
  3
ME10_DIM_10
100
AcDbAlignedDimension
 13
531.68226904728
 23
1875.721297327548
 33
0.0
 14
416.6778177193737
 24
1875.721297327548
 34
0.0
100
AcDbRotatedDimension
  0
DIMENSION
  5
36A
330
1F
100
AcDbEntity
  8
1
100
AcDbDimension
  2
*D5
 10
409.1778177193738
 20
1854.65270218707
 30
0.0
 11
474.1800433833269
 21
1858.15270218707
 31
0.0
 70
    32
  1
<>
 71
     5
 42
-1.0
 53
0.00013888888889
  3
ME10_DIM_11
100
AcDbAlignedDimension
 13
539.18226904728
 23
1872.471297327548
 33
0.0
 14
409.1778177193737
 24
1872.471297327548
 34
0.0
100
AcDbRotatedDimension
  0
DIMENSION
  5
375
330
1F
100
AcDbEntity
  8
1
100
AcDbDimension
  2
*D6
 10
519.2834074464059
 20
1780.52283728589
 30
0.0
 11
615.5356331103591
 21
1784.17283728589
 31
0.0
 70
    33
  1
<>
 71
     5
 42
-1.0
 53
0.00013888888889
  3
ME10_DIM_12
100
AcDbAlignedDimension
 13
711.7878587743122
 23
1798.022774678812
 33
0.0
 14
519.2834074464059
 24
1798.022774678812
 34
0.0
  0
DIMENSION
  5
381
330
1F
100
AcDbEntity
  8
1
100
AcDbDimension
  2
*D7
 10
730.554541640844
 20
1768.662047190399
 30
0.0
 11
730.554541640844
 21
1739.662047190399
 31
0.0
 70
    32
  1
<>
 71
     5
 42
-1.0
 53
0.00013888888889
  3
ME10_DIM_13
100
AcDbAlignedDimension
 13
683.2879267170614
 23
1710.662047190399
 33
0.0
 14
704.787858774312
 24
1768.662047190399
 34
0.0
 50
90.0
100
AcDbRotatedDimension
  0
DIMENSION
  5
38D
330
1F
100
AcDbEntity
  8
1
100
AcDbDimension
  2
*D8
 10
489.753971623883
 20
1796.822774678799
 30
0.0
 11
489.753971623883
 21
1811.322774678799
 31
0.0
 70
    32
  1
<>
 71
     5
 42
-1.0
 53
0.00013888888889
  3
ME10_DIM_14
100
AcDbAlignedDimension
 13
461.5278510678517
 23
1825.822774678799
 33
0.0
 14
473.0278510678467
 24
1796.822774678799
 34
0.0
 50
90.0
100
AcDbRotatedDimension
  0
DIMENSION
  5
399
330
1F
100
AcDbEntity
  8
1
100
AcDbDimension
  2
*D9
 10
549.592110815465
 20
1878.221297327548
 30
0.0
 11
549.592110815465
 21
1894.221297327548
 31
0.0
 70
    32
  1
<>
 71
     5
 42
-1.0
 53
0.00013888888889
  3
ME10_DIM_15
100
AcDbAlignedDimension
 13
544.93226904728
 23
1910.221297327548
 33
0.0
 14
544.93226904728
 24
1878.221297327548
 34
0.0
 50
90.0
100
AcDbRotatedDimension
  0
DIMENSION
  5
3A5
330
1F
100
AcDbEntity
  8
1
100
AcDbDimension
  2
*D10
 10
559.56204776936
 20
1912.721297327548
 30
0.0
 11
559.56204776936
 21
1894.221297327548
 31
0.0
 70
    32
  1
<>
 71
     5
 42
-1.0
 53
0.00013888888889
  3
ME10_DIM_16
100
AcDbAlignedDimension
 13
531.68226904728
 23
1875.721297327548
 33
0.0
 14
531.68226904728
 24
1912.721297327548
 34
0.0
 50
90.0
100
AcDbRotatedDimension
  0
INSERT
  5
3AD
330
1F
100
AcDbEntity
  8
1
100
AcDbBlockReference
  2
*D11
 10
0.0
 20
0.0
 30
0.0
  0
ENDSEC
  0
SECTION
  2
OBJECTS
  0
DICTIONARY
  5
C
330
0
100
AcDbDictionary
281
     1
  3
ACAD_GROUP
350
D
  3
ACAD_LAYOUT
350
1A
  3
ACAD_MATERIAL
350
3B
  3
ACAD_MLEADERSTYLE
350
3B0
  3
ACAD_MLINESTYLE
350
17
  3
ACAD_PLOTSETTINGS
350
19
  3
ACAD_PLOTSTYLENAME
350
E
  3
ACAD_VISUALSTYLE
350
2A
  3
AcDbVariableDictionary
350
3AE
  0
DICTIONARY
  5
D
102
{ACAD_REACTORS
330
C
102
}
330
C
100
AcDbDictionary
281
     1
  0
DICTIONARY
  5
1A
102
{ACAD_REACTORS
330
C
102
}
330
C
100
AcDbDictionary
281
     1
  3
Layout1
350
1E
  3
Layout2
350
26
  3
Model
350
22
  0
DICTIONARY
  5
3B
102
{ACAD_REACTORS
330
C
102
}
330
C
100
AcDbDictionary
281
     1
  3
ByBlock
350
3D
  3
ByLayer
350
3C
  3
Global
350
3E
  0
DICTIONARY
  5
3B0
102
{ACAD_REACTORS
330
C
102
}
330
C
100
AcDbDictionary
281
     1
  0
DICTIONARY
  5
17
102
{ACAD_REACTORS
330
C
102
}
330
C
100
AcDbDictionary
281
     1
  3
Standard
350
18
  0
DICTIONARY
  5
19
102
{ACAD_REACTORS
330
C
102
}
330
C
100
AcDbDictionary
281
     1
  0
ACDBDICTIONARYWDFLT
  5
E
102
{ACAD_REACTORS
330
C
102
}
330
C
100
AcDbDictionary
281
     1
  3
Normal
350
F
100
AcDbDictionaryWithDefault
340
F
  0
DICTIONARY
  5
2A
102
{ACAD_REACTORS
330
C
102
}
330
C
100
AcDbDictionary
281
     1
  3
2dWireframe
350
2F
  3
3D Hidden
350
31
  3
3dWireframe
350
30
  3
Basic
350
32
  3
Brighten
350
36
  3
ColorChange
350
3A
  3
Conceptual
350
34
  3
Dim
350
35
  3
Facepattern
350
39
  3
Flat
350
2B
  3
FlatWithEdges
350
2C
  3
Gouraud
350
2D
  3
GouraudWithEdges
350
2E
  3
Linepattern
350
38
  3
Realistic
350
33
  3
Thicken
350
37
  0
DICTIONARY
  5
3AE
102
{ACAD_REACTORS
330
C
102
}
330
C
100
AcDbDictionary
281
     1
  3
DIMASSOC
350
3B1
  3
HIDETEXT
350
3B2
  0
LAYOUT
  5
1E
102
{ACAD_REACTORS
330
1A
102
}
330
1A
100
AcDbPlotSettings
  1

  2
none_device
  4

  6

 40
0.0
 41
0.0
 42
0.0
 43
0.0
 44
0.0
 45
0.0
 46
0.0
 47
0.0
 48
0.0
 49
0.0
140
0.0
141
0.0
142
1.0
143
1.0
 70
   688
 72
     0
 73
     0
 74
     5
  7

 75
    16
147
1.0
148
0.0
149
0.0
100
AcDbLayout
  1
Layout1
 70
     1
 71
     1
 10
0.0
 20
0.0
 11
12.0
 21
9.0
 12
0.0
 22
0.0
 32
0.0
 14
1.00000000000000E+20
 24
1.00000000000000E+20
 34
1.00000000000000E+20
 15
-1.00000000000000E+20
 25
-1.00000000000000E+20
 35
-1.00000000000000E+20
146
0.0
 13
0.0
 23
0.0
 33
0.0
 16
1.0
 26
0.0
 36
0.0
 17
0.0
 27
1.0
 37
0.0
 76
     0
330
1B
  0
LAYOUT
  5
26
102
{ACAD_REACTORS
330
1A
102
}
330
1A
100
AcDbPlotSettings
  1

  2
none_device
  4

  6

 40
0.0
 41
0.0
 42
0.0
 43
0.0
 44
0.0
 45
0.0
 46
0.0
 47
0.0
 48
0.0
 49
0.0
140
0.0
141
0.0
142
1.0
143
1.0
 70
   688
 72
     0
 73
     0
 74
     5
  7

 75
    16
147
1.0
148
0.0
149
0.0
100
AcDbLayout
  1
Layout2
 70
     1
 71
     2
 10
0.0
 20
0.0
 11
0.0
 21
0.0
 12
0.0
 22
0.0
 32
0.0
 14
0.0
 24
0.0
 34
0.0
 15
0.0
 25
0.0
 35
0.0
146
0.0
 13
0.0
 23
0.0
 33
0.0
 16
1.0
 26
0.0
 36
0.0
 17
0.0
 27
1.0
 37
0.0
 76
     0
330
23
  0
LAYOUT
  5
22
102
{ACAD_REACTORS
330
1A
102
}
330
1A
100
AcDbPlotSettings
  1

  2
none_device
  4

  6

 40
0.0
 41
0.0
 42
0.0
 43
0.0
 44
0.0
 45
0.0
 46
0.0
 47
0.0
 48
0.0
 49
0.0
140
0.0
141
0.0
142
1.0
143
1.0
 70
  1712
 72
     0
 73
     0
 74
     0
  7

 75
     0
147
1.0
148
0.0
149
0.0
100
AcDbLayout
  1
Model
 70
     1
 71
     0
 10
0.0
 20
0.0
 11
12.0
 21
9.0
 12
0.0
 22
0.0
 32
0.0
 14
355.3569163450422
 24
1655.230949724955
 34
0.0
 15
775.3569163450422
 25
1952.230949724955
 35
0.0
146
0.0
 13
0.0
 23
0.0
 33
0.0
 16
1.0
 26
0.0
 36
0.0
 17
0.0
 27
1.0
 37
0.0
 76
     0
330
1F
331
29
  0
MATERIAL
  5
3D
102
{ACAD_REACTORS
330
3B
102
}
102
{ACAD_XDICTIONARY
360
3D5
102
}
330
3B
100
AcDbMaterial
  1
ByBlock
  0
MATERIAL
  5
3C
102
{ACAD_REACTORS
330
3B
102
}
102
{ACAD_XDICTIONARY
360
3D3
102
}
330
3B
100
AcDbMaterial
  1
ByLayer
  0
MATERIAL
  5
3E
102
{ACAD_REACTORS
330
3B
102
}
102
{ACAD_XDICTIONARY
360
3D7
102
}
330
3B
100
AcDbMaterial
  1
Global
  0
MLINESTYLE
  5
18
102
{ACAD_REACTORS
330
17
102
}
330
17
100
AcDbMlineStyle
  2
Standard
 70
     0
  3

 62
   256
 51
90.0
 52
90.0
 71
     2
 49
0.5
 62
   256
  6
BYLAYER
 49
-0.5
 62
   256
  6
BYLAYER
  0
ACDBPLACEHOLDER
  5
F
102
{ACAD_REACTORS
330
E
102
}
330
E
  0
VISUALSTYLE
  5
2F
102
{ACAD_REACTORS
330
2A
102
}
102
{ACAD_XDICTIONARY
360
3BB
102
}
330
2A
100
AcDbVisualStyle
  2
2dWireframe
 70
     4
 71
     0
 72
     2
 73
     0
 90
        0
 40
-0.6
 41
-30.0
 62
     5
 63
     7
 74
     1
 91
        4
 64
     7
 65
   257
 75
     1
175
     1
 42
1.0
 92
        0
 66
   257
 43
1.0
 76
     1
 77
     6
 78
     2
 67
     7
 79
     5
170
     0
171
     0
290
     0
174
     0
 93
        1
 44
0.0
173
     0
291
     0
 45
0.0
1001
ACAD
1000
AcDbSavedByObjectVersion
1070
     0
  0
VISUALSTYLE
  5
31
102
{ACAD_REACTORS
330
2A
102
}
102
{ACAD_XDICTIONARY
360
3BF
102
}
330
2A
100
AcDbVisualStyle
  2
3D Hidden
 70
     6
 71
     1
 72
     2
 73
     2
 90
        0
 40
-0.6
 41
-30.0
 62
     5
 63
     7
 74
     2
 91
        2
 64
     7
 65
   257
 75
     2
175
     1
 42
40.0
 92
        0
 66
   257
 43
1.0
 76
     1
 77
     6
 78
     2
 67
     7
 79
     3
170
     0
171
     0
290
     0
174
     0
 93
        1
 44
0.0
173
     0
291
     0
 45
0.0
1001
ACAD
1000
AcDbSavedByObjectVersion
1070
     0
  0
VISUALSTYLE
  5
30
102
{ACAD_REACTORS
330
2A
102
}
102
{ACAD_XDICTIONARY
360
3BD
102
}
330
2A
100
AcDbVisualStyle
  2
3dWireframe
 70
     5
 71
     0
 72
     2
 73
     0
 90
        0
 40
-0.6
 41
-30.0
 62
     5
 63
     7
 74
     1
 91
        4
 64
     7
 65
   257
 75
     1
175
     1
 42
1.0
 92
        0
 66
   257
 43
1.0
 76
     1
 77
     6
 78
     2
 67
     7
 79
     5
170
     0
171
     0
290
     0
174
     0
 93
        1
 44
0.0
173
     0
291
     0
 45
0.0
1001
ACAD
1000
AcDbSavedByObjectVersion
1070
     0
  0
VISUALSTYLE
  5
32
102
{ACAD_REACTORS
330
2A
102
}
102
{ACAD_XDICTIONARY
360
3C1
102
}
330
2A
100
AcDbVisualStyle
  2
Basic
 70
     7
 71
     1
 72
     0
 73
     1
 90
        0
 40
-0.6
 41
-30.0
 62
     5
 63
     7
 74
     0
 91
        4
 64
     7
 65
   257
 75
     1
175
     1
 42
1.0
 92
        8
 66
     7
 43
1.0
 76
     1
 77
     6
 78
     2
 67
     7
 79
     5
170
     0
171
     0
290
     0
174
     0
 93
        1
 44
0.0
173
     0
291
     1
 45
0.0
1001
ACAD
1000
AcDbSavedByObjectVersion
1070
     0
  0
VISUALSTYLE
  5
36
102
{ACAD_REACTORS
330
2A
102
}
102
{ACAD_XDICTIONARY
360
3C9
102
}
330
2A
100
AcDbVisualStyle
  2
Brighten
 70
    12
 71
     2
 72
     2
 73
     0
 90
        0
 40
-0.6
 41
-30.0
 62
     5
 63
     7
 74
     1
 91
        4
 64
     7
 65
   257
 75
     1
175
     1
 42
1.0
 92
        8
 66
     7
 43
1.0
 76
     1
 77
     6
 78
     2
 67
     7
 79
     5
170
     0
171
     0
290
     0
174
     0
 93
        1
 44
50.0
173
     0
291
     1
 45
0.0
1001
ACAD
1000
AcDbSavedByObjectVersion
1070
     0
  0
VISUALSTYLE
  5
3A
102
{ACAD_REACTORS
330
2A
102
}
102
{ACAD_XDICTIONARY
360
3D1
102
}
330
2A
100
AcDbVisualStyle
  2
ColorChange
 70
    16
 71
     2
 72
     2
 73
     3
 90
        0
 40
-0.6
 41
-30.0
 62
     5
 63
     8
 74
     1
 91
        4
 64
     7
 65
   257
 75
     1
175
     1
 42
1.0
 92
        8
 66
     8
 43
1.0
 76
     1
 77
     6
 78
     2
 67
     7
 79
     5
170
     0
171
     0
290
     0
174
     0
 93
        1
 44
0.0
173
     0
291
     1
 45
0.0
1001
ACAD
1000
AcDbSavedByObjectVersion
1070
     0
  0
VISUALSTYLE
  5
34
102
{ACAD_REACTORS
330
2A
102
}
102
{ACAD_XDICTIONARY
360
3C5
102
}
330
2A
100
AcDbVisualStyle
  2
Conceptual
 70
     9
 71
     3
 72
     2
 73
     0
 90
        0
 40
-0.6
 41
-30.0
 62
     5
 63
     7
 74
     2
 91
        2
 64
     7
 65
   257
 75
     1
175
     1
 42
40.0
 92
        8
 66
     7
 43
1.0
 76
     1
 77
     6
 78
     2
 67
     7
 79
     3
170
     0
171
     0
290
     0
174
     0
 93
        1
 44
0.0
173
     0
291
     0
 45
0.0
1001
ACAD
1000
AcDbSavedByObjectVersion
1070
     0
  0
VISUALSTYLE
  5
35
102
{ACAD_REACTORS
330
2A
102
}
102
{ACAD_XDICTIONARY
360
3C7
102
}
330
2A
100
AcDbVisualStyle
  2
Dim
 70
    11
 71
     2
 72
     2
 73
     0
 90
        0
 40
-0.6
 41
-30.0
 62
     5
 63
     7
 74
     1
 91
        4
 64
     7
 65
   257
 75
     1
175
     1
 42
1.0
 92
        8
 66
     7
 43
1.0
 76
     1
 77
     6
 78
     2
 67
     7
 79
     5
170
     0
171
     0
290
     0
174
     0
 93
        1
 44
-50.0
173
     0
291
     1
 45
0.0
1001
ACAD
1000
AcDbSavedByObjectVersion
1070
     0
  0
VISUALSTYLE
  5
39
102
{ACAD_REACTORS
330
2A
102
}
102
{ACAD_XDICTIONARY
360
3CF
102
}
330
2A
100
AcDbVisualStyle
  2
Facepattern
 70
    15
 71
     2
 72
     2
 73
     0
 90
        0
 40
-0.6
 41
-30.0
 62
     5
 63
     7
 74
     1
 91
        4
 64
     7
 65
   257
 75
     1
175
     1
 42
1.0
 92
        8
 66
     7
 43
1.0
 76
     1
 77
     6
 78
     2
 67
     7
 79
     5
170
     0
171
     0
290
     0
174
     0
 93
        1
 44
0.0
173
     0
291
     1
 45
0.0
1001
ACAD
1000
AcDbSavedByObjectVersion
1070
     0
  0
VISUALSTYLE
  5
2B
102
{ACAD_REACTORS
330
2A
102
}
102
{ACAD_XDICTIONARY
360
3B3
102
}
330
2A
100
AcDbVisualStyle
  2
Flat
 70
     0
 71
     2
 72
     1
 73
     1
 90
        2
 40
-0.6
 41
30.0
 62
     5
 63
     7
 74
     0
 91
        4
 64
     7
 65
   257
 75
     1
175
     1
 42
1.0
 92
        8
 66
     7
 43
1.0
 76
     1
 77
     6
 78
     2
 67
     7
 79
     5
170
     0
171
     0
290
     0
174
     0
 93
       13
 44
0.0
173
     0
291
     1
 45
0.0
1001
ACAD
1000
AcDbSavedByObjectVersion
1070
     0
  0
VISUALSTYLE
  5
2C
102
{ACAD_REACTORS
330
2A
102
}
102
{ACAD_XDICTIONARY
360
3B5
102
}
330
2A
100
AcDbVisualStyle
  2
FlatWithEdges
 70
     1
 71
     2
 72
     1
 73
     1
 90
        2
 40
-0.6
 41
30.0
 62
     5
 63
     7
 74
     1
 91
        4
 64
     7
 65
   257
 75
     1
175
     1
 42
1.0
 92
        0
 66
   257
 43
1.0
 76
     1
 77
     6
 78
     2
 67
     7
 79
     5
170
     0
171
     0
290
     0
174
     0
 93
       13
 44
0.0
173
     0
291
     1
 45
0.0
1001
ACAD
1000
AcDbSavedByObjectVersion
1070
     0
  0
VISUALSTYLE
  5
2D
102
{ACAD_REACTORS
330
2A
102
}
102
{ACAD_XDICTIONARY
360
3B7
102
}
330
2A
100
AcDbVisualStyle
  2
Gouraud
 70
     2
 71
     2
 72
     2
 73
     1
 90
        2
 40
-0.6
 41
30.0
 62
     5
 63
     7
 74
     0
 91
        4
 64
     7
 65
   257
 75
     1
175
     1
 42
1.0
 92
        0
 66
     7
 43
1.0
 76
     1
 77
     6
 78
     2
 67
     7
 79
     5
170
     0
171
     0
290
     0
174
     0
 93
       13
 44
0.0
173
     0
291
     1
 45
0.0
1001
ACAD
1000
AcDbSavedByObjectVersion
1070
     0
  0
VISUALSTYLE
  5
2E
102
{ACAD_REACTORS
330
2A
102
}
102
{ACAD_XDICTIONARY
360
3B9
102
}
330
2A
100
AcDbVisualStyle
  2
GouraudWithEdges
 70
     3
 71
     2
 72
     2
 73
     1
 90
        2
 40
-0.6
 41
30.0
 62
     5
 63
     7
 74
     1
 91
        4
 64
     7
 65
   257
 75
     1
175
     1
 42
1.0
 92
        0
 66
   257
 43
1.0
 76
     1
 77
     6
 78
     2
 67
     7
 79
     5
170
     0
171
     0
290
     0
174
     0
 93
       13
 44
0.0
173
     0
291
     1
 45
0.0
1001
ACAD
1000
AcDbSavedByObjectVersion
1070
     0
  0
VISUALSTYLE
  5
38
102
{ACAD_REACTORS
330
2A
102
}
102
{ACAD_XDICTIONARY
360
3CD
102
}
330
2A
100
AcDbVisualStyle
  2
Linepattern
 70
    14
 71
     2
 72
     2
 73
     0
 90
        0
 40
-0.6
 41
-30.0
 62
     5
 63
     7
 74
     1
 91
        4
 64
     7
 65
   257
 75
     7
175
     7
 42
1.0
 92
        8
 66
     7
 43
1.0
 76
     1
 77
     6
 78
     2
 67
     7
 79
     5
170
     0
171
     0
290
     0
174
     0
 93
        1
 44
0.0
173
     0
291
     1
 45
0.0
1001
ACAD
1000
AcDbSavedByObjectVersion
1070
     0
  0
VISUALSTYLE
  5
33
102
{ACAD_REACTORS
330
2A
102
}
102
{ACAD_XDICTIONARY
360
3C3
102
}
330
2A
100
AcDbVisualStyle
  2
Realistic
 70
     8
 71
     2
 72
     2
 73
     0
 90
        0
 40
-0.6
 41
-30.0
 62
     5
 63
     7
 74
     1
 91
        0
 64
     7
 65
   257
 75
     1
175
     1
 42
1.0
 92
        8
 66
     8
 43
1.0
 76
     1
 77
     6
 78
     2
 67
     7
 79
     5
170
     0
171
     0
290
     0
174
     0
 93
       13
 44
0.0
173
     0
291
     0
 45
0.0
1001
ACAD
1000
AcDbSavedByObjectVersion
1070
     0
  0
VISUALSTYLE
  5
37
102
{ACAD_REACTORS
330
2A
102
}
102
{ACAD_XDICTIONARY
360
3CB
102
}
330
2A
100
AcDbVisualStyle
  2
Thicken
 70
    13
 71
     2
 72
     2
 73
     0
 90
        0
 40
-0.6
 41
-30.0
 62
     5
 63
     7
 74
     1
 91
        4
 64
     7
 65
   257
 75
     1
175
     1
 42
1.0
 92
       12
 66
     7
 43
1.0
 76
     1
 77
     6
 78
     2
 67
     7
 79
     5
170
     0
171
     0
290
     0
174
     0
 93
        1
 44
0.0
173
     0
291
     1
 45
0.0
1001
ACAD
1000
AcDbSavedByObjectVersion
1070
     0
  0
DICTIONARYVAR
  5
3B1
102
{ACAD_REACTORS
330
3AE
102
}
330
3AE
100
DictionaryVariables
280
     0
  1
2
  0
DICTIONARYVAR
  5
3B2
102
{ACAD_REACTORS
330
3AE
102
}
330
3AE
100
DictionaryVariables
280
     0
  1
1
  0
DICTIONARY
  5
3D5
330
3D
100
AcDbDictionary
280
     1
281
     1
  3
ACAD_XREC_ROUNDTRIP
360
3D6
  0
DICTIONARY
  5
3D3
330
3C
100
AcDbDictionary
280
     1
281
     1
  3
ACAD_XREC_ROUNDTRIP
360
3D4
  0
DICTIONARY
  5
3D7
330
3E
100
AcDbDictionary
280
     1
281
     1
  3
ACAD_XREC_ROUNDTRIP
360
3D8
  0
DICTIONARY
  5
3BB
330
2F
100
AcDbDictionary
280
     1
281
     1
  3
ACAD_XREC_ROUNDTRIP
360
3BC
  0
DICTIONARY
  5
3BF
330
31
100
AcDbDictionary
280
     1
281
     1
  3
ACAD_XREC_ROUNDTRIP
360
3C0
  0
DICTIONARY
  5
3BD
330
30
100
AcDbDictionary
280
     1
281
     1
  3
ACAD_XREC_ROUNDTRIP
360
3BE
  0
DICTIONARY
  5
3C1
330
32
100
AcDbDictionary
280
     1
281
     1
  3
ACAD_XREC_ROUNDTRIP
360
3C2
  0
DICTIONARY
  5
3C9
330
36
100
AcDbDictionary
280
     1
281
     1
  3
ACAD_XREC_ROUNDTRIP
360
3CA
  0
DICTIONARY
  5
3D1
330
3A
100
AcDbDictionary
280
     1
281
     1
  3
ACAD_XREC_ROUNDTRIP
360
3D2
  0
DICTIONARY
  5
3C5
330
34
100
AcDbDictionary
280
     1
281
     1
  3
ACAD_XREC_ROUNDTRIP
360
3C6
  0
DICTIONARY
  5
3C7
330
35
100
AcDbDictionary
280
     1
281
     1
  3
ACAD_XREC_ROUNDTRIP
360
3C8
  0
DICTIONARY
  5
3CF
330
39
100
AcDbDictionary
280
     1
281
     1
  3
ACAD_XREC_ROUNDTRIP
360
3D0
  0
DICTIONARY
  5
3B3
330
2B
100
AcDbDictionary
280
     1
281
     1
  3
ACAD_XREC_ROUNDTRIP
360
3B4
  0
DICTIONARY
  5
3B5
330
2C
100
AcDbDictionary
280
     1
281
     1
  3
ACAD_XREC_ROUNDTRIP
360
3B6
  0
DICTIONARY
  5
3B7
330
2D
100
AcDbDictionary
280
     1
281
     1
  3
ACAD_XREC_ROUNDTRIP
360
3B8
  0
DICTIONARY
  5
3B9
330
2E
100
AcDbDictionary
280
     1
281
     1
  3
ACAD_XREC_ROUNDTRIP
360
3BA
  0
DICTIONARY
  5
3CD
330
38
100
AcDbDictionary
280
     1
281
     1
  3
ACAD_XREC_ROUNDTRIP
360
3CE
  0
DICTIONARY
  5
3C3
330
33
100
AcDbDictionary
280
     1
281
     1
  3
ACAD_XREC_ROUNDTRIP
360
3C4
  0
DICTIONARY
  5
3CB
330
37
100
AcDbDictionary
280
     1
281
     1
  3
ACAD_XREC_ROUNDTRIP
360
3CC
  0
XRECORD
  5
3D6
102
{ACAD_REACTORS
330
3D5
102
}
330
3D5
100
AcDbXrecord
280
     1
102
MATERIAL
148
0.0
149
0.0
149
0.0
 93
        0
 94
      127
282
     0
 72
     1
 77
     1
171
     1
175
     1
179
     1
273
     0
  0
XRECORD
  5
3D4
102
{ACAD_REACTORS
330
3D3
102
}
330
3D3
100
AcDbXrecord
280
     1
102
MATERIAL
148
0.0
149
0.0
149
0.0
 93
        0
 94
      127
282
     0
 72
     1
 77
     1
171
     1
175
     1
179
     1
273
     0
  0
XRECORD
  5
3D8
102
{ACAD_REACTORS
330
3D7
102
}
330
3D7
100
AcDbXrecord
280
     1
102
MATERIAL
148
0.0
149
0.0
149
0.0
 93
        0
 94
      127
282
     0
 72
     1
 77
     1
171
     1
175
     1
179
     1
273
     0
  0
XRECORD
  5
3BC
102
{ACAD_REACTORS
330
3BB
102
}
330
3BB
100
AcDbXrecord
280
     1
102
RTVSPropertyOp0
 70
     1
102
RTVSPropertyOp1
 70
     1
102
RTVSPropertyOp2
 70
     1
102
RTVSPropertyOp3
 70
     1
102
RTVSPropertyOp4
 70
     1
102
RTVSPropertyOp5
 70
     1
102
RTVSPropertyOp6
 70
     1
102
RTVSPropertyOp7
 70
     1
102
RTVSPropertyOp8
 70
     1
102
RTVSPropertyOp9
 70
     1
102
RTVSPropertyOp10
 70
     1
102
RTVSPropertyOp11
 70
     1
102
RTVSPropertyOp12
 70
     1
102
RTVSPropertyOp13
 70
     1
102
RTVSPropertyOp14
 70
     1
102
RTVSPropertyOp15
 70
     1
102
RTVSPropertyOp16
 70
     1
102
RTVSPropertyOp17
 70
     1
102
RTVSPropertyOp18
 70
     1
102
RTVSPropertyOp19
 70
     1
102
RTVSPropertyOp20
 70
     1
102
RTVSPropertyOp21
 70
     1
102
RTVSPropertyOp22
 70
     1
102
RTVSPropertyOp23
 70
     1
102
RTVSPropertyOp24
 70
     1
102
RTVSPropertyOp25
 70
     1
102
RTVSPropertyOp26
 70
     1
102
RTVSPropertyOp27
 70
     1
102
RTVSPropertyOp28
 70
     1
102
RTVSPropertyOp29
 70
     1
102
RTVSPropertyOp30
 70
     1
102
RTVSPropertyOp31
 70
     1
102
RTVSPropertyOp32
 70
     1
  0
XRECORD
  5
3C0
102
{ACAD_REACTORS
330
3BF
102
}
330
3BF
100
AcDbXrecord
280
     1
102
RTVSPropertyOp0
 70
     1
102
RTVSPropertyOp1
 70
     1
102
RTVSPropertyOp2
 70
     1
102
RTVSPropertyOp3
 70
     1
102
RTVSPropertyOp4
 70
     1
102
RTVSPropertyOp5
 70
     1
102
RTVSPropertyOp6
 70
     1
102
RTVSPropertyOp7
 70
     1
102
RTVSPropertyOp8
 70
     1
102
RTVSPropertyOp9
 70
     1
102
RTVSPropertyOp10
 70
     1
102
RTVSPropertyOp11
 70
     1
102
RTVSPropertyOp12
 70
     1
102
RTVSPropertyOp13
 70
     1
102
RTVSPropertyOp14
 70
     1
102
RTVSPropertyOp15
 70
     1
102
RTVSPropertyOp16
 70
     1
102
RTVSPropertyOp17
 70
     1
102
RTVSPropertyOp18
 70
     1
102
RTVSPropertyOp19
 70
     1
102
RTVSPropertyOp20
 70
     1
102
RTVSPropertyOp21
 70
     1
102
RTVSPropertyOp22
 70
     1
102
RTVSPropertyOp23
 70
     1
102
RTVSPropertyOp24
 70
     1
102
RTVSPropertyOp25
 70
     1
102
RTVSPropertyOp26
 70
     1
102
RTVSPropertyOp27
 70
     1
102
RTVSPropertyOp28
 70
     1
102
RTVSPropertyOp29
 70
     1
102
RTVSPropertyOp30
 70
     1
102
RTVSPropertyOp31
 70
     1
102
RTVSPropertyOp32
 70
     1
  0
XRECORD
  5
3BE
102
{ACAD_REACTORS
330
3BD
102
}
330
3BD
100
AcDbXrecord
280
     1
102
RTVSPropertyOp0
 70
     1
102
RTVSPropertyOp1
 70
     1
102
RTVSPropertyOp2
 70
     1
102
RTVSPropertyOp3
 70
     1
102
RTVSPropertyOp4
 70
     1
102
RTVSPropertyOp5
 70
     1
102
RTVSPropertyOp6
 70
     1
102
RTVSPropertyOp7
 70
     1
102
RTVSPropertyOp8
 70
     1
102
RTVSPropertyOp9
 70
     1
102
RTVSPropertyOp10
 70
     1
102
RTVSPropertyOp11
 70
     1
102
RTVSPropertyOp12
 70
     1
102
RTVSPropertyOp13
 70
     1
102
RTVSPropertyOp14
 70
     1
102
RTVSPropertyOp15
 70
     1
102
RTVSPropertyOp16
 70
     1
102
RTVSPropertyOp17
 70
     1
102
RTVSPropertyOp18
 70
     1
102
RTVSPropertyOp19
 70
     1
102
RTVSPropertyOp20
 70
     1
102
RTVSPropertyOp21
 70
     1
102
RTVSPropertyOp22
 70
     1
102
RTVSPropertyOp23
 70
     1
102
RTVSPropertyOp24
 70
     1
102
RTVSPropertyOp25
 70
     1
102
RTVSPropertyOp26
 70
     1
102
RTVSPropertyOp27
 70
     1
102
RTVSPropertyOp28
 70
     1
102
RTVSPropertyOp29
 70
     1
102
RTVSPropertyOp30
 70
     1
102
RTVSPropertyOp31
 70
     1
102
RTVSPropertyOp32
 70
     1
  0
XRECORD
  5
3C2
102
{ACAD_REACTORS
330
3C1
102
}
330
3C1
100
AcDbXrecord
280
     1
102
RTVSPropertyOp0
 70
     1
102
RTVSPropertyOp1
 70
     1
102
RTVSPropertyOp2
 70
     1
102
RTVSPropertyOp3
 70
     1
102
RTVSPropertyOp4
 70
     1
102
RTVSPropertyOp5
 70
     1
102
RTVSPropertyOp6
 70
     1
102
RTVSPropertyOp7
 70
     1
102
RTVSPropertyOp8
 70
     1
102
RTVSPropertyOp9
 70
     1
102
RTVSPropertyOp10
 70
     1
102
RTVSPropertyOp11
 70
     1
102
RTVSPropertyOp12
 70
     1
102
RTVSPropertyOp13
 70
     1
102
RTVSPropertyOp14
 70
     1
102
RTVSPropertyOp15
 70
     1
102
RTVSPropertyOp16
 70
     1
102
RTVSPropertyOp17
 70
     1
102
RTVSPropertyOp18
 70
     1
102
RTVSPropertyOp19
 70
     1
102
RTVSPropertyOp20
 70
     1
102
RTVSPropertyOp21
 70
     1
102
RTVSPropertyOp22
 70
     1
102
RTVSPropertyOp23
 70
     1
102
RTVSPropertyOp24
 70
     1
102
RTVSPropertyOp25
 70
     1
102
RTVSPropertyOp26
 70
     1
102
RTVSPropertyOp27
 70
     1
102
RTVSPropertyOp28
 70
     1
102
RTVSPropertyOp29
 70
     1
102
RTVSPropertyOp30
 70
     1
102
RTVSPropertyOp31
 70
     1
102
RTVSPropertyOp32
 70
     1
  0
XRECORD
  5
3CA
102
{ACAD_REACTORS
330
3C9
102
}
330
3C9
100
AcDbXrecord
280
     1
102
RTVSPropertyOp0
 70
     1
102
RTVSPropertyOp1
 70
     1
102
RTVSPropertyOp2
 70
     1
102
RTVSPropertyOp3
 70
     1
102
RTVSPropertyOp4
 70
     1
102
RTVSPropertyOp5
 70
     1
102
RTVSPropertyOp6
 70
     1
102
RTVSPropertyOp7
 70
     1
102
RTVSPropertyOp8
 70
     1
102
RTVSPropertyOp9
 70
     1
102
RTVSPropertyOp10
 70
     1
102
RTVSPropertyOp11
 70
     1
102
RTVSPropertyOp12
 70
     1
102
RTVSPropertyOp13
 70
     1
102
RTVSPropertyOp14
 70
     1
102
RTVSPropertyOp15
 70
     1
102
RTVSPropertyOp16
 70
     1
102
RTVSPropertyOp17
 70
     1
102
RTVSPropertyOp18
 70
     1
102
RTVSPropertyOp19
 70
     1
102
RTVSPropertyOp20
 70
     1
102
RTVSPropertyOp21
 70
     1
102
RTVSPropertyOp22
 70
     1
102
RTVSPropertyOp23
 70
     1
102
RTVSPropertyOp24
 70
     1
102
RTVSPropertyOp25
 70
     1
102
RTVSPropertyOp26
 70
     1
102
RTVSPropertyOp27
 70
     1
102
RTVSPropertyOp28
 70
     1
102
RTVSPropertyOp29
 70
     1
102
RTVSPropertyOp30
 70
     1
102
RTVSPropertyOp31
 70
     1
102
RTVSPropertyOp32
 70
     1
  0
XRECORD
  5
3D2
102
{ACAD_REACTORS
330
3D1
102
}
330
3D1
100
AcDbXrecord
280
     1
102
RTVSPropertyOp0
 70
     1
102
RTVSPropertyOp1
 70
     1
102
RTVSPropertyOp2
 70
     1
102
RTVSPropertyOp3
 70
     1
102
RTVSPropertyOp4
 70
     1
102
RTVSPropertyOp5
 70
     1
102
RTVSPropertyOp6
 70
     1
102
RTVSPropertyOp7
 70
     1
102
RTVSPropertyOp8
 70
     1
102
RTVSPropertyOp9
 70
     1
102
RTVSPropertyOp10
 70
     1
102
RTVSPropertyOp11
 70
     1
102
RTVSPropertyOp12
 70
     1
102
RTVSPropertyOp13
 70
     1
102
RTVSPropertyOp14
 70
     1
102
RTVSPropertyOp15
 70
     1
102
RTVSPropertyOp16
 70
     1
102
RTVSPropertyOp17
 70
     1
102
RTVSPropertyOp18
 70
     1
102
RTVSPropertyOp19
 70
     1
102
RTVSPropertyOp20
 70
     1
102
RTVSPropertyOp21
 70
     1
102
RTVSPropertyOp22
 70
     1
102
RTVSPropertyOp23
 70
     1
102
RTVSPropertyOp24
 70
     1
102
RTVSPropertyOp25
 70
     1
102
RTVSPropertyOp26
 70
     1
102
RTVSPropertyOp27
 70
     1
102
RTVSPropertyOp28
 70
     1
102
RTVSPropertyOp29
 70
     1
102
RTVSPropertyOp30
 70
     1
102
RTVSPropertyOp31
 70
     1
102
RTVSPropertyOp32
 70
     1
  0
XRECORD
  5
3C6
102
{ACAD_REACTORS
330
3C5
102
}
330
3C5
100
AcDbXrecord
280
     1
102
RTVSPropertyOp0
 70
     1
102
RTVSPropertyOp1
 70
     1
102
RTVSPropertyOp2
 70
     1
102
RTVSPropertyOp3
 70
     1
102
RTVSPropertyOp4
 70
     1
102
RTVSPropertyOp5
 70
     1
102
RTVSPropertyOp6
 70
     1
102
RTVSPropertyOp7
 70
     1
102
RTVSPropertyOp8
 70
     1
102
RTVSPropertyOp9
 70
     1
102
RTVSPropertyOp10
 70
     1
102
RTVSPropertyOp11
 70
     1
102
RTVSPropertyOp12
 70
     1
102
RTVSPropertyOp13
 70
     1
102
RTVSPropertyOp14
 70
     1
102
RTVSPropertyOp15
 70
     1
102
RTVSPropertyOp16
 70
     1
102
RTVSPropertyOp17
 70
     1
102
RTVSPropertyOp18
 70
     1
102
RTVSPropertyOp19
 70
     1
102
RTVSPropertyOp20
 70
     1
102
RTVSPropertyOp21
 70
     1
102
RTVSPropertyOp22
 70
     1
102
RTVSPropertyOp23
 70
     1
102
RTVSPropertyOp24
 70
     1
102
RTVSPropertyOp25
 70
     1
102
RTVSPropertyOp26
 70
     1
102
RTVSPropertyOp27
 70
     1
102
RTVSPropertyOp28
 70
     1
102
RTVSPropertyOp29
 70
     1
102
RTVSPropertyOp30
 70
     1
102
RTVSPropertyOp31
 70
     1
102
RTVSPropertyOp32
 70
     1
  0
XRECORD
  5
3C8
102
{ACAD_REACTORS
330
3C7
102
}
330
3C7
100
AcDbXrecord
280
     1
102
RTVSPropertyOp0
 70
     1
102
RTVSPropertyOp1
 70
     1
102
RTVSPropertyOp2
 70
     1
102
RTVSPropertyOp3
 70
     1
102
RTVSPropertyOp4
 70
     1
102
RTVSPropertyOp5
 70
     1
102
RTVSPropertyOp6
 70
     1
102
RTVSPropertyOp7
 70
     1
102
RTVSPropertyOp8
 70
     1
102
RTVSPropertyOp9
 70
     1
102
RTVSPropertyOp10
 70
     1
102
RTVSPropertyOp11
 70
     1
102
RTVSPropertyOp12
 70
     1
102
RTVSPropertyOp13
 70
     1
102
RTVSPropertyOp14
 70
     1
102
RTVSPropertyOp15
 70
     1
102
RTVSPropertyOp16
 70
     1
102
RTVSPropertyOp17
 70
     1
102
RTVSPropertyOp18
 70
     1
102
RTVSPropertyOp19
 70
     1
102
RTVSPropertyOp20
 70
     1
102
RTVSPropertyOp21
 70
     1
102
RTVSPropertyOp22
 70
     1
102
RTVSPropertyOp23
 70
     1
102
RTVSPropertyOp24
 70
     1
102
RTVSPropertyOp25
 70
     1
102
RTVSPropertyOp26
 70
     1
102
RTVSPropertyOp27
 70
     1
102
RTVSPropertyOp28
 70
     1
102
RTVSPropertyOp29
 70
     1
102
RTVSPropertyOp30
 70
     1
102
RTVSPropertyOp31
 70
     1
102
RTVSPropertyOp32
 70
     1
  0
XRECORD
  5
3D0
102
{ACAD_REACTORS
330
3CF
102
}
330
3CF
100
AcDbXrecord
280
     1
102
RTVSPropertyOp0
 70
     1
102
RTVSPropertyOp1
 70
     1
102
RTVSPropertyOp2
 70
     1
102
RTVSPropertyOp3
 70
     1
102
RTVSPropertyOp4
 70
     1
102
RTVSPropertyOp5
 70
     1
102
RTVSPropertyOp6
 70
     1
102
RTVSPropertyOp7
 70
     1
102
RTVSPropertyOp8
 70
     1
102
RTVSPropertyOp9
 70
     1
102
RTVSPropertyOp10
 70
     1
102
RTVSPropertyOp11
 70
     1
102
RTVSPropertyOp12
 70
     1
102
RTVSPropertyOp13
 70
     1
102
RTVSPropertyOp14
 70
     1
102
RTVSPropertyOp15
 70
     1
102
RTVSPropertyOp16
 70
     1
102
RTVSPropertyOp17
 70
     1
102
RTVSPropertyOp18
 70
     1
102
RTVSPropertyOp19
 70
     1
102
RTVSPropertyOp20
 70
     1
102
RTVSPropertyOp21
 70
     1
102
RTVSPropertyOp22
 70
     1
102
RTVSPropertyOp23
 70
     1
102
RTVSPropertyOp24
 70
     1
102
RTVSPropertyOp25
 70
     1
102
RTVSPropertyOp26
 70
     1
102
RTVSPropertyOp27
 70
     1
102
RTVSPropertyOp28
 70
     1
102
RTVSPropertyOp29
 70
     1
102
RTVSPropertyOp30
 70
     1
102
RTVSPropertyOp31
 70
     1
102
RTVSPropertyOp32
 70
     1
  0
XRECORD
  5
3B4
102
{ACAD_REACTORS
330
3B3
102
}
330
3B3
100
AcDbXrecord
280
     1
102
RTVSPropertyOp0
 70
     1
102
RTVSPropertyOp1
 70
     1
102
RTVSPropertyOp2
 70
     1
102
RTVSPropertyOp3
 70
     1
102
RTVSPropertyOp4
 70
     1
102
RTVSPropertyOp5
 70
     1
102
RTVSPropertyOp6
 70
     1
102
RTVSPropertyOp7
 70
     1
102
RTVSPropertyOp8
 70
     1
102
RTVSPropertyOp9
 70
     1
102
RTVSPropertyOp10
 70
     1
102
RTVSPropertyOp11
 70
     1
102
RTVSPropertyOp12
 70
     1
102
RTVSPropertyOp13
 70
     1
102
RTVSPropertyOp14
 70
     1
102
RTVSPropertyOp15
 70
     1
102
RTVSPropertyOp16
 70
     1
102
RTVSPropertyOp17
 70
     1
102
RTVSPropertyOp18
 70
     1
102
RTVSPropertyOp19
 70
     1
102
RTVSPropertyOp20
 70
     1
102
RTVSPropertyOp21
 70
     1
102
RTVSPropertyOp22
 70
     1
102
RTVSPropertyOp23
 70
     1
102
RTVSPropertyOp24
 70
     1
102
RTVSPropertyOp25
 70
     1
102
RTVSPropertyOp26
 70
     1
102
RTVSPropertyOp27
 70
     1
102
RTVSPropertyOp28
 70
     1
102
RTVSPropertyOp29
 70
     1
102
RTVSPropertyOp30
 70
     1
102
RTVSPropertyOp31
 70
     1
102
RTVSPropertyOp32
 70
     1
  0
XRECORD
  5
3B6
102
{ACAD_REACTORS
330
3B5
102
}
330
3B5
100
AcDbXrecord
280
     1
102
RTVSPropertyOp0
 70
     1
102
RTVSPropertyOp1
 70
     1
102
RTVSPropertyOp2
 70
     1
102
RTVSPropertyOp3
 70
     1
102
RTVSPropertyOp4
 70
     1
102
RTVSPropertyOp5
 70
     1
102
RTVSPropertyOp6
 70
     1
102
RTVSPropertyOp7
 70
     1
102
RTVSPropertyOp8
 70
     1
102
RTVSPropertyOp9
 70
     1
102
RTVSPropertyOp10
 70
     1
102
RTVSPropertyOp11
 70
     1
102
RTVSPropertyOp12
 70
     1
102
RTVSPropertyOp13
 70
     1
102
RTVSPropertyOp14
 70
     1
102
RTVSPropertyOp15
 70
     1
102
RTVSPropertyOp16
 70
     1
102
RTVSPropertyOp17
 70
     1
102
RTVSPropertyOp18
 70
     1
102
RTVSPropertyOp19
 70
     1
102
RTVSPropertyOp20
 70
     1
102
RTVSPropertyOp21
 70
     1
102
RTVSPropertyOp22
 70
     1
102
RTVSPropertyOp23
 70
     1
102
RTVSPropertyOp24
 70
     1
102
RTVSPropertyOp25
 70
     1
102
RTVSPropertyOp26
 70
     1
102
RTVSPropertyOp27
 70
     1
102
RTVSPropertyOp28
 70
     1
102
RTVSPropertyOp29
 70
     1
102
RTVSPropertyOp30
 70
     1
102
RTVSPropertyOp31
 70
     1
102
RTVSPropertyOp32
 70
     1
  0
XRECORD
  5
3B8
102
{ACAD_REACTORS
330
3B7
102
}
330
3B7
100
AcDbXrecord
280
     1
102
RTVSPropertyOp0
 70
     1
102
RTVSPropertyOp1
 70
     1
102
RTVSPropertyOp2
 70
     1
102
RTVSPropertyOp3
 70
     1
102
RTVSPropertyOp4
 70
     1
102
RTVSPropertyOp5
 70
     1
102
RTVSPropertyOp6
 70
     1
102
RTVSPropertyOp7
 70
     1
102
RTVSPropertyOp8
 70
     1
102
RTVSPropertyOp9
 70
     1
102
RTVSPropertyOp10
 70
     1
102
RTVSPropertyOp11
 70
     1
102
RTVSPropertyOp12
 70
     1
102
RTVSPropertyOp13
 70
     1
102
RTVSPropertyOp14
 70
     1
102
RTVSPropertyOp15
 70
     1
102
RTVSPropertyOp16
 70
     1
102
RTVSPropertyOp17
 70
     1
102
RTVSPropertyOp18
 70
     1
102
RTVSPropertyOp19
 70
     1
102
RTVSPropertyOp20
 70
     1
102
RTVSPropertyOp21
 70
     1
102
RTVSPropertyOp22
 70
     1
102
RTVSPropertyOp23
 70
     1
102
RTVSPropertyOp24
 70
     1
102
RTVSPropertyOp25
 70
     1
102
RTVSPropertyOp26
 70
     1
102
RTVSPropertyOp27
 70
     1
102
RTVSPropertyOp28
 70
     1
102
RTVSPropertyOp29
 70
     1
102
RTVSPropertyOp30
 70
     1
102
RTVSPropertyOp31
 70
     1
102
RTVSPropertyOp32
 70
     1
  0
XRECORD
  5
3BA
102
{ACAD_REACTORS
330
3B9
102
}
330
3B9
100
AcDbXrecord
280
     1
102
RTVSPropertyOp0
 70
     1
102
RTVSPropertyOp1
 70
     1
102
RTVSPropertyOp2
 70
     1
102
RTVSPropertyOp3
 70
     1
102
RTVSPropertyOp4
 70
     1
102
RTVSPropertyOp5
 70
     1
102
RTVSPropertyOp6
 70
     1
102
RTVSPropertyOp7
 70
     1
102
RTVSPropertyOp8
 70
     1
102
RTVSPropertyOp9
 70
     1
102
RTVSPropertyOp10
 70
     1
102
RTVSPropertyOp11
 70
     1
102
RTVSPropertyOp12
 70
     1
102
RTVSPropertyOp13
 70
     1
102
RTVSPropertyOp14
 70
     1
102
RTVSPropertyOp15
 70
     1
102
RTVSPropertyOp16
 70
     1
102
RTVSPropertyOp17
 70
     1
102
RTVSPropertyOp18
 70
     1
102
RTVSPropertyOp19
 70
     1
102
RTVSPropertyOp20
 70
     1
102
RTVSPropertyOp21
 70
     1
102
RTVSPropertyOp22
 70
     1
102
RTVSPropertyOp23
 70
     1
102
RTVSPropertyOp24
 70
     1
102
RTVSPropertyOp25
 70
     1
102
RTVSPropertyOp26
 70
     1
102
RTVSPropertyOp27
 70
     1
102
RTVSPropertyOp28
 70
     1
102
RTVSPropertyOp29
 70
     1
102
RTVSPropertyOp30
 70
     1
102
RTVSPropertyOp31
 70
     1
102
RTVSPropertyOp32
 70
     1
  0
XRECORD
  5
3CE
102
{ACAD_REACTORS
330
3CD
102
}
330
3CD
100
AcDbXrecord
280
     1
102
RTVSPropertyOp0
 70
     1
102
RTVSPropertyOp1
 70
     1
102
RTVSPropertyOp2
 70
     1
102
RTVSPropertyOp3
 70
     1
102
RTVSPropertyOp4
 70
     1
102
RTVSPropertyOp5
 70
     1
102
RTVSPropertyOp6
 70
     1
102
RTVSPropertyOp7
 70
     1
102
RTVSPropertyOp8
 70
     1
102
RTVSPropertyOp9
 70
     1
102
RTVSPropertyOp10
 70
     1
102
RTVSPropertyOp11
 70
     1
102
RTVSPropertyOp12
 70
     1
102
RTVSPropertyOp13
 70
     1
102
RTVSPropertyOp14
 70
     1
102
RTVSPropertyOp15
 70
     1
102
RTVSPropertyOp16
 70
     1
102
RTVSPropertyOp17
 70
     1
102
RTVSPropertyOp18
 70
     1
102
RTVSPropertyOp19
 70
     1
102
RTVSPropertyOp20
 70
     1
102
RTVSPropertyOp21
 70
     1
102
RTVSPropertyOp22
 70
     1
102
RTVSPropertyOp23
 70
     1
102
RTVSPropertyOp24
 70
     1
102
RTVSPropertyOp25
 70
     1
102
RTVSPropertyOp26
 70
     1
102
RTVSPropertyOp27
 70
     1
102
RTVSPropertyOp28
 70
     1
102
RTVSPropertyOp29
 70
     1
102
RTVSPropertyOp30
 70
     1
102
RTVSPropertyOp31
 70
     1
102
RTVSPropertyOp32
 70
     1
  0
XRECORD
  5
3C4
102
{ACAD_REACTORS
330
3C3
102
}
330
3C3
100
AcDbXrecord
280
     1
102
RTVSPropertyOp0
 70
     1
102
RTVSPropertyOp1
 70
     1
102
RTVSPropertyOp2
 70
     1
102
RTVSPropertyOp3
 70
     1
102
RTVSPropertyOp4
 70
     1
102
RTVSPropertyOp5
 70
     1
102
RTVSPropertyOp6
 70
     1
102
RTVSPropertyOp7
 70
     1
102
RTVSPropertyOp8
 70
     1
102
RTVSPropertyOp9
 70
     1
102
RTVSPropertyOp10
 70
     1
102
RTVSPropertyOp11
 70
     1
102
RTVSPropertyOp12
 70
     1
102
RTVSPropertyOp13
 70
     1
102
RTVSPropertyOp14
 70
     1
102
RTVSPropertyOp15
 70
     1
102
RTVSPropertyOp16
 70
     1
102
RTVSPropertyOp17
 70
     1
102
RTVSPropertyOp18
 70
     1
102
RTVSPropertyOp19
 70
     1
102
RTVSPropertyOp20
 70
     1
102
RTVSPropertyOp21
 70
     1
102
RTVSPropertyOp22
 70
     1
102
RTVSPropertyOp23
 70
     1
102
RTVSPropertyOp24
 70
     1
102
RTVSPropertyOp25
 70
     1
102
RTVSPropertyOp26
 70
     1
102
RTVSPropertyOp27
 70
     1
102
RTVSPropertyOp28
 70
     1
102
RTVSPropertyOp29
 70
     1
102
RTVSPropertyOp30
 70
     1
102
RTVSPropertyOp31
 70
     1
102
RTVSPropertyOp32
 70
     1
  0
XRECORD
  5
3CC
102
{ACAD_REACTORS
330
3CB
102
}
330
3CB
100
AcDbXrecord
280
     1
102
RTVSPropertyOp0
 70
     1
102
RTVSPropertyOp1
 70
     1
102
RTVSPropertyOp2
 70
     1
102
RTVSPropertyOp3
 70
     1
102
RTVSPropertyOp4
 70
     1
102
RTVSPropertyOp5
 70
     1
102
RTVSPropertyOp6
 70
     1
102
RTVSPropertyOp7
 70
     1
102
RTVSPropertyOp8
 70
     1
102
RTVSPropertyOp9
 70
     1
102
RTVSPropertyOp10
 70
     1
102
RTVSPropertyOp11
 70
     1
102
RTVSPropertyOp12
 70
     1
102
RTVSPropertyOp13
 70
     1
102
RTVSPropertyOp14
 70
     1
102
RTVSPropertyOp15
 70
     1
102
RTVSPropertyOp16
 70
     1
102
RTVSPropertyOp17
 70
     1
102
RTVSPropertyOp18
 70
     1
102
RTVSPropertyOp19
 70
     1
102
RTVSPropertyOp20
 70
     1
102
RTVSPropertyOp21
 70
     1
102
RTVSPropertyOp22
 70
     1
102
RTVSPropertyOp23
 70
     1
102
RTVSPropertyOp24
 70
     1
102
RTVSPropertyOp25
 70
     1
102
RTVSPropertyOp26
 70
     1
102
RTVSPropertyOp27
 70
     1
102
RTVSPropertyOp28
 70
     1
102
RTVSPropertyOp29
 70
     1
102
RTVSPropertyOp30
 70
     1
102
RTVSPropertyOp31
 70
     1
102
RTVSPropertyOp32
 70
     1
  0
ENDSEC
  0
EOF
